Unhinged 2020 The Tax Collector 2020 Palm Springs 2020 wynonna earp Formula 1 ettv 2160p Stargirl S01E13 Greenland 2020 etrg Yellowstone S03E07 ethd SUPERNATURAL  P-Valley S01E05 The Silencing 2020 NOS4A2 Legacy of Lies 2020 Black Water Abyss 2020 Greyhound 2020 Marvels Agents of S.H.I.E.L.D. S07E11 ita Hindi Xxx The Secret Dare to Dream 2020 The Rental 2020 Peninsula 2020 Coma 2019 YELLOWSTONE Stargirl  Deep Blue Sea 3 2020 f1 Mulan 2020 MotoGP The 100 S07E10 rq.mp4 The Fugitive S01E01 WWE ufc yts Work It 2020 The Secret Garden 2020 etmovies Star Trek Lower Decks s01e01 Mortal 2020 Ava 2020 Bad Boys for Life 2020 doom patrol  formula1 Blindspot The 100 Doom Patrol s02e09 Yellowstone S03E08 0 Wynonna Earp S04E03 Big Brother S22E02 formula Perry Mason S01E08 Last Week Tonight The Outpost 2020 The Alienist s02e07 ddr Black Is King 2020 An American Pickle 2020 Avengers Endgame 2019 The Chi S03E08 Scoob 2020 Made in Italy 2020 Deathstroke Knights and Dragons - The Movie 2020 The Old Guard 2020 the alienist perry mason evo 
Warning! Use a VPN When Downloading Torrents!
Your IP Address is 34.200.218.187. Location United States
Your Internet Provider can see when you download torrents! Hide your IP Address with a VPN
ETTV warns: You should use VPN to hide your torrenting. HIDE ME NOW
ETTV Recommended TV Shows
The.Alienist.S02E07.1080p.WEBRip.x264-OATH[ettv] torrent
Wynonna.Earp.S04E02.PROPER.1080p.HEVC.x265.MeGusta.ETRG torrent
Perry.Mason.2020.S01E08.720p.WEB.H264-OATH[ettv] torrent
Stargirl.S01E13.720p.HEVC.x265.MeGusta.ETRG torrent
NOS4A2.S02E08.Chris.McQueen.720p.AMZN.WEBRip.DDP5.1.x264-NTG[ettv] torrent
Yellowstone.2018.S03E08.720p.HEVC.x265.MeGusta.ETRG torrent

ETTV Recommended SD
City.of.Salt.2020.HDRip.XviD.AC3-EVO[EtMovies] torrent
Stalkers.Prey.2.2020.HDRip.XviD.AC3-EVO[EtMovies] torrent
G-Loc.2020.DVDRip.AC3.X264-CMRG torrent
Souvenirs.2020.HDRip.XviD.AC3-EVO[EtMovies] torrent

ETTV Recommended HD
U-571  (War Drama 2000)  Matthew McConaughey  720p  BrRip torrent
The Alien Factor [1978 - USA] sci fi torrent
Annihilation - Horror 2018 Eng Ita Rus Multi-Subs 720p [H264-mp4] torrent
Moonraker (1979)-JAMES BOND-[Roger Moore] 1080p H264 DolbyD 5.1 ūüíé nickarad torrent

ETTV Recommended UHD
Sandy.Wexler.2017.2160p.HDR.WEBRip.DD5.1.HEVC-DDR.mkv torrent
The.Week.Of.2018.2160p.HDR.WEBRip.DD5.1.HEVC-DDR.mkv torrent
Star Wars Return of the Jedi 1983 2160p UHD-Film OTD83 v1.0 oohteedee torrent
The.Way.Back.2020.4K.MULTI.2160p.HDR.WEB.DDP.5.1.HEVC-DDR.mkv torrent
The.Secret.Garden.2020.HDR.2160p.DDP.5.1.HEVC-DDR.mkv torrent
Ballon.2018.BluRay.2160p.HDR.Atmos.7.1.HEVC-DDR.mkv torrent

ETTV Recommended Cam
The Hunt 2020 HDCAM x264 AC3-ETRG torrent
The Burnt Orange Heresy 2020 720p HDCAM-C1NEM4 torrent

ETTV Recommended Foreign
Genese.[Genesis].2018.720p.WEBRip.x264.HORiZON-ArtSubs torrent
Valleem Thetti Pulleem Thetti (2020) 720p Hindi Dubbed WEB-DL x264 AAC 800MB - MOVCR torrent
Battle Of Empire Fetih 1453 (2012) Urdu Dubbed Hd 720p ESubs [FPRG] torrent
Teray.Pyar.Mai.2020.Urdu.1080p.AMZN.WEB-DL.DDP2.0.H.264-Telly torrent
Tomtesterom 2008 HDRIP HC [BrightShadow] torrent
Dil.Tera.Hogaya.2020.Urdu.1080p.AMZN.WEB-DL.DDP2.0.H.264-Telly torrent

ETTV Recommended Music
Queen  - A Kind Of Magic - 1986 - MP3 - 320KBPS - G&U torrent
 Washed Out - Purple Noon (2020) [Hi-Res]  torrent
VA - New Music Releases Week 31 of 2020 (Mp3 320kbps Songs) [PMEDIA] ‚≠źÔłŹ torrent
120 Tracks Rush ~Greatest Hits Songs Playlist Spotify Mp3~[320]  kbps Beats‚≠ź torrent
Headdock - Techno Syndrome 09-08-2020 [2CD] [2Bonus CD] {1337x} torrent
[ambient] (2020) Llyn Y Cwn - Dinorwic [FLAC] [DarkAngie] torrent


Download Torrent "Extinction 2018.2160p.HDR.WEBRip.DD+ 5.1.DDP.5.1.HEVC-DDR.mkv"

IMDB Details
Description:

A father has a recurring dream of losing his family. His nightmare turns into reality when the planet is invaded by a force bent on destruction. Fighting for their lives, he comes to realize an unknown strength to keep them safe from harm.

Genre:

Action, Drama, Sci-Fi, Thriller

Download Torrent (Magnet)
Download Torrent (File)

Seeds: 172
Leechers: 102

Uploaded by:
DDR


Category:
Movies > UltraHD/4K


Details
Title:Extinction 2018.2160p.HDR.WEBRip.DD+ 5.1.DDP.5.1.HEVC-DDR.mkv
Description:






General
Unique ID                                : 208002283653758807601086917219396618366 (0x9C7BC85C5698D36C23E559442524087E)
Complete name                            : D:\00_demux\Extinction 2018.2160p.HDR.WEBRip.DD+ 5.1.DDP.5.1.HEVC-DDR.mkv
Format                                   : Matroska
Format version                           : Version 4
File size                                : 6.80 GiB
Duration                                 : 1 h 35 min
Overall bit rate                         : 10.2 Mb/s
Encoded date                             : UTC 2020-07-26 19:01:51 / UTC 2018-07-15 07:43:02
Writing application                      : mkvmerge v47.0.0 ('Black Flag') 64-bit
Writing library                          : libebml v1.3.10 + libmatroska v1.5.2 / Lavf58.0.0

Video
ID                                       : 1
Format                                   : HEVC
Format/Info                              : High Efficiency Video Coding
Commercial name                          : HDR10
Format profile¬†¬†¬†¬†¬†¬†¬†¬†¬†¬†¬†¬†¬†¬†¬†¬†¬†¬†¬†¬†¬†¬†¬†¬†¬†¬† : Main [email protected]@High
Codec ID                                 : V_MPEGH/ISO/HEVC
Duration                                 : 1 h 34 min
Bit rate                                 : 9 625 kb/s
Width                                    : 3 840 pixels
Height                                   : 1 600 pixels
Display aspect ratio                     : 2.40:1
Frame rate mode                          : Constant
Frame rate                               : 23.976 (24000/1001) FPS
Color space                              : YUV
Chroma subsampling                       : 4:2:0
Bit depth                                : 10 bits
Bits/(Pixel*Frame)                       : 0.065
Stream size                              : 6.37 GiB (94%)
Language                                 : English
Default                                  : Yes
Forced                                   : No
Color range                              : Limited
Color primaries                          : BT.2020
Transfer characteristics                 : PQ
Matrix coefficients                      : BT.2020 non-constant
Mastering display color primaries        : Display P3
Mastering display luminance              : min: 0.0050 cd/m2, max: 4000 cd/m2
Maximum Content Light Level              : 4128 cd/m2
Maximum Frame-Average Light Level        : 1478 cd/m2

Audio
ID                                       : 2
Format                                   : E-AC-3
Format/Info                              : Enhanced AC-3
Commercial name                          : Dolby Digital Plus
Codec ID                                 : A_EAC3
Duration                                 : 1 h 35 min
Bit rate mode                            : Constant
Bit rate                                 : 640 kb/s
Channel(s)                               : 6 channels
Channel layout                           : L R C LFE Ls Rs
Sampling rate                            : 48.0 kHz
Frame rate                               : 31.250 FPS (1536 SPF)
Compression mode                         : Lossy
Stream size                              : 436 MiB (6%)
Language                                 : English
Service kind                             : Complete Main
Default                                  : Yes
Forced                                   : No

Text #1
ID                                       : 3
Format                                   : UTF-8
Codec ID                                 : S_TEXT/UTF8
Codec ID/Info                            : UTF-8 Plain Text
Duration                                 : 1 h 32 min
Bit rate                                 : 47 b/s
Count of elements                        : 1153
Stream size                              : 32.2 KiB (0%)
Title                                    : English
Language                                 : English
Default                                  : No
Forced                                   : No

Text #2
ID                                       : 4
Format                                   : UTF-8
Codec ID                                 : S_TEXT/UTF8
Codec ID/Info                            : UTF-8 Plain Text
Duration                                 : 1 h 33 min
Bit rate                                 : 32 b/s
Count of elements                        : 890
Stream size                              : 22.5 KiB (0%)
Title                                    : Italian
Language                                 : Italian
Default                                  : No
Forced                                   : No

Text #3
ID                                       : 5
Format                                   : UTF-8
Codec ID                                 : S_TEXT/UTF8
Codec ID/Info                            : UTF-8 Plain Text
Duration                                 : 1 h 33 min
Bit rate                                 : 32 b/s
Count of elements                        : 907
Stream size                              : 22.4 KiB (0%)
Title                                    : Portuguese
Language                                 : Portuguese
Default                                  : No
Forced                                   : No

Text #4
ID                                       : 6
Format                                   : UTF-8
Codec ID                                 : S_TEXT/UTF8
Codec ID/Info                            : UTF-8 Plain Text
Duration                                 : 1 h 33 min
Bit rate                                 : 33 b/s
Count of elements                        : 877
Stream size                              : 23.1 KiB (0%)
Title                                    : Polish
Language                                 : Polish
Default                                  : No
Forced                                   : No

Text #5
ID                                       : 7
Format                                   : UTF-8
Codec ID                                 : S_TEXT/UTF8
Codec ID/Info                            : UTF-8 Plain Text
Duration                                 : 1 h 33 min
Bit rate                                 : 32 b/s
Count of elements                        : 901
Stream size                              : 22.1 KiB (0%)
Title                                    : Brazilian Portuguese
Language                                 : Portuguese
Default                                  : No
Forced                                   : No

Text #6
ID                                       : 8
Format                                   : UTF-8
Codec ID                                 : S_TEXT/UTF8
Codec ID/Info                            : UTF-8 Plain Text
Duration                                 : 1 h 33 min
Bit rate                                 : 31 b/s
Count of elements                        : 923
Stream size                              : 22.0 KiB (0%)
Title                                    : Simplified Chinese
Language                                 : Chinese
Default                                  : No
Forced                                   : No

Text #7
ID                                       : 9
Format                                   : UTF-8
Codec ID                                 : S_TEXT/UTF8
Codec ID/Info                            : UTF-8 Plain Text
Duration                                 : 1 h 33 min
Bit rate                                 : 36 b/s
Count of elements                        : 924
Stream size                              : 25.4 KiB (0%)
Title                                    : Korean
Language                                 : Korean
Default                                  : No
Forced                                   : No

Text #8
ID                                       : 10
Format                                   : UTF-8
Codec ID                                 : S_TEXT/UTF8
Codec ID/Info                            : UTF-8 Plain Text
Duration                                 : 1 h 28 min
Bit rate                                 : 34 b/s
Count of elements                        : 910
Stream size                              : 22.3 KiB (0%)
Title                                    : Swedish
Language                                 : Swedish
Default                                  : No
Forced                                   : No

Text #9
ID                                       : 11
Format                                   : UTF-8
Codec ID                                 : S_TEXT/UTF8
Codec ID/Info                            : UTF-8 Plain Text
Duration                                 : 1 h 33 min
Bit rate                                 : 30 b/s
Count of elements                        : 819
Stream size                              : 20.8 KiB (0%)
Title                                    : Finnish
Language                                 : Finnish
Default                                  : No
Forced                                   : No

Text #10
ID                                       : 12
Format                                   : UTF-8
Codec ID                                 : S_TEXT/UTF8
Codec ID/Info                            : UTF-8 Plain Text
Duration                                 : 1 h 33 min
Bit rate                                 : 55 b/s
Count of elements                        : 928
Stream size                              : 38.4 KiB (0%)
Title                                    : Hebrew
Language                                 : Hebrew
Default                                  : No
Forced                                   : No

Text #11
ID                                       : 13
Format                                   : UTF-8
Codec ID                                 : S_TEXT/UTF8
Codec ID/Info                            : UTF-8 Plain Text
Duration                                 : 1 h 33 min
Bit rate                                 : 58 b/s
Count of elements                        : 927
Stream size                              : 40.5 KiB (0%)
Title                                    : Arabic
Language                                 : Arabic
Default                                  : No
Forced                                   : No

Text #12
ID                                       : 14
Format                                   : UTF-8
Codec ID                                 : S_TEXT/UTF8
Codec ID/Info                            : UTF-8 Plain Text
Duration                                 : 1 h 33 min
Bit rate                                 : 32 b/s
Count of elements                        : 907
Stream size                              : 22.6 KiB (0%)
Title                                    : Norwegian
Language                                 : Norwegian
Default                                  : No
Forced                                   : No

Text #13
ID                                       : 15
Format                                   : UTF-8
Codec ID                                 : S_TEXT/UTF8
Codec ID/Info                            : UTF-8 Plain Text
Duration                                 : 1 h 33 min
Bit rate                                 : 33 b/s
Count of elements                        : 857
Stream size                              : 22.7 KiB (0%)
Title                                    : Danish
Language                                 : Danish
Default                                  : No
Forced                                   : No

Text #14
ID                                       : 16
Format                                   : UTF-8
Codec ID                                 : S_TEXT/UTF8
Codec ID/Info                            : UTF-8 Plain Text
Duration                                 : 1 h 33 min
Bit rate                                 : 31 b/s
Count of elements                        : 926
Stream size                              : 21.6 KiB (0%)
Title                                    : Romanian
Language                                 : Romanian
Default                                  : No
Forced                                   : No

Text #15
ID                                       : 17
Format                                   : UTF-8
Codec ID                                 : S_TEXT/UTF8
Codec ID/Info                            : UTF-8 Plain Text
Duration                                 : 1 h 33 min
Bit rate                                 : 49 b/s
Count of elements                        : 926
Stream size                              : 33.8 KiB (0%)
Title                                    : Russian
Language                                 : Russian
Default                                  : No
Forced                                   : No

Text #16
ID                                       : 18
Format                                   : UTF-8
Codec ID                                 : S_TEXT/UTF8
Codec ID/Info                            : UTF-8 Plain Text
Duration                                 : 1 h 33 min
Bit rate                                 : 55 b/s
Count of elements                        : 924
Stream size                              : 37.9 KiB (0%)
Title                                    : Greek
Language                                 : Greek
Default                                  : No
Forced                                   : No

Text #17
ID                                       : 19
Format                                   : UTF-8
Codec ID                                 : S_TEXT/UTF8
Codec ID/Info                            : UTF-8 Plain Text
Duration                                 : 1 h 27 min
Bit rate                                 : 37 b/s
Count of elements                        : 895
Stream size                              : 23.9 KiB (0%)
Title                                    : German
Language                                 : German
Default                                  : No
Forced                                   : No

Text #18
ID                                       : 20
Format                                   : UTF-8
Codec ID                                 : S_TEXT/UTF8
Codec ID/Info                            : UTF-8 Plain Text
Duration                                 : 1 h 33 min
Bit rate                                 : 33 b/s
Count of elements                        : 881
Stream size                              : 23.0 KiB (0%)
Title                                    : Spanish
Language                                 : Spanish
Default                                  : No
Forced                                   : No

Text #19
ID                                       : 21
Format                                   : UTF-8
Codec ID                                 : S_TEXT/UTF8
Codec ID/Info                            : UTF-8 Plain Text
Duration                                 : 1 h 33 min
Bit rate                                 : 32 b/s
Count of elements                        : 887
Stream size                              : 22.5 KiB (0%)
Title                                    : European Spanish
Language                                 : Spanish
Default                                  : No
Forced                                   : No

Text #20
ID                                       : 22
Format                                   : UTF-8
Codec ID                                 : S_TEXT/UTF8
Codec ID/Info                            : UTF-8 Plain Text
Duration                                 : 1 h 33 min
Bit rate                                 : 78 b/s
Count of elements                        : 928
Stream size                              : 53.6 KiB (0%)
Title                                    : Thai
Language                                 : Thai
Default                                  : No
Forced                                   : No

Text #21
ID                                       : 23
Format                                   : UTF-8
Codec ID                                 : S_TEXT/UTF8
Codec ID/Info                            : UTF-8 Plain Text
Duration                                 : 1 h 33 min
Bit rate                                 : 28 b/s
Count of elements                        : 928
Stream size                              : 19.7 KiB (0%)
Title                                    : Traditional Chinese
Language                                 : Chinese
Default                                  : No
Forced                                   : No

Text #22
ID                                       : 24
Format                                   : UTF-8
Codec ID                                 : S_TEXT/UTF8
Codec ID/Info                            : UTF-8 Plain Text
Duration                                 : 1 h 33 min
Bit rate                                 : 39 b/s
Count of elements                        : 878
Stream size                              : 27.1 KiB (0%)
Title                                    : French
Language                                 : French
Default                                  : No
Forced                                   : No

Text #23
ID                                       : 25
Format                                   : UTF-8
Codec ID                                 : S_TEXT/UTF8
Codec ID/Info                            : UTF-8 Plain Text
Duration                                 : 1 h 33 min
Bit rate                                 : 31 b/s
Count of elements                        : 923
Stream size                              : 21.6 KiB (0%)
Title                                    : Indonesian
Language                                 : Indonesian
Default                                  : No
Forced                                   : No

Text #24
ID                                       : 26
Format                                   : UTF-8
Codec ID                                 : S_TEXT/UTF8
Codec ID/Info                            : UTF-8 Plain Text
Duration                                 : 1 h 28 min
Bit rate                                 : 32 b/s
Count of elements                        : 824
Stream size                              : 21.2 KiB (0%)
Title                                    : Dutch
Language                                 : Dutch
Default                                  : No
Forced                                   : No

Text #25
ID                                       : 27
Format                                   : UTF-8
Codec ID                                 : S_TEXT/UTF8
Codec ID/Info                            : UTF-8 Plain Text
Duration                                 : 1 h 33 min
Bit rate                                 : 35 b/s
Count of elements                        : 865
Stream size                              : 24.0 KiB (0%)
Title                                    : Turkish
Language                                 : Turkish
Default                                  : No
Forced                                   : No

Text #26
ID                                       : 28
Format                                   : UTF-8
Codec ID                                 : S_TEXT/UTF8
Codec ID/Info                            : UTF-8 Plain Text
Duration                                 : 1 h 33 min
Bit rate                                 : 28 b/s
Count of elements                        : 981
Stream size                              : 19.5 KiB (0%)
Title                                    : Japanese
Language                                 : Japanese
Default                                  : No
Forced                                   : No



MikeKhan /Desitorrents.tv

Category:Movies > UltraHD/4K
Lang:English  English
Total Size:6.80 GB
Info Hash:b0b255211368cd63ef83efb694c91b3ba57efe92
Added By:DDR
Date Added:26-07-2020 21:39:48

  

Files

File List: 
 File Size
Extinction 2018.2160p.HDR.WEBRip.DD+ 5.1.DDP.5.1.HEVC-DDR.mkv6.80 GB



Comments

There are currently no comments. Be the first one to write something !