Unhinged 2020 The Tax Collector 2020 Palm Springs 2020 wynonna earp Formula 1 ettv 2160p Stargirl S01E13 Greenland 2020 etrg Yellowstone S03E07 ethd SUPERNATURAL  P-Valley S01E05 The Silencing 2020 NOS4A2 Legacy of Lies 2020 Black Water Abyss 2020 Greyhound 2020 Marvels Agents of S.H.I.E.L.D. S07E11 ita Hindi Xxx The Secret Dare to Dream 2020 The Rental 2020 Peninsula 2020 Coma 2019 YELLOWSTONE Stargirl  Deep Blue Sea 3 2020 f1 Mulan 2020 MotoGP The 100 S07E10 rq.mp4 The Fugitive S01E01 WWE ufc yts Work It 2020 The Secret Garden 2020 etmovies Star Trek Lower Decks s01e01 Mortal 2020 Ava 2020 Bad Boys for Life 2020 doom patrol  formula1 Blindspot The 100 Doom Patrol s02e09 Yellowstone S03E08 0 Wynonna Earp S04E03 Big Brother S22E02 formula Perry Mason S01E08 Last Week Tonight The Outpost 2020 The Alienist s02e07 ddr Black Is King 2020 An American Pickle 2020 Avengers Endgame 2019 The Chi S03E08 Scoob 2020 Made in Italy 2020 Deathstroke Knights and Dragons - The Movie 2020 The Old Guard 2020 the alienist perry mason evo 
Warning! Use a VPN When Downloading Torrents!
Your IP Address is 34.200.218.187. Location United States
Your Internet Provider can see when you download torrents! Hide your IP Address with a VPN
ETTV warns: You should use VPN to hide your torrenting. HIDE ME NOW
ETTV Recommended TV Shows
The.Alienist.S02E07.1080p.WEBRip.x264-OATH[ettv] torrent
Wynonna.Earp.S04E02.PROPER.1080p.HEVC.x265.MeGusta.ETRG torrent
Perry.Mason.2020.S01E08.720p.WEB.H264-OATH[ettv] torrent
Stargirl.S01E13.720p.HEVC.x265.MeGusta.ETRG torrent
NOS4A2.S02E08.Chris.McQueen.720p.AMZN.WEBRip.DDP5.1.x264-NTG[ettv] torrent
Yellowstone.2018.S03E08.720p.HEVC.x265.MeGusta.ETRG torrent

ETTV Recommended SD
City.of.Salt.2020.HDRip.XviD.AC3-EVO[EtMovies] torrent
Stalkers.Prey.2.2020.HDRip.XviD.AC3-EVO[EtMovies] torrent
G-Loc.2020.DVDRip.AC3.X264-CMRG torrent
Souvenirs.2020.HDRip.XviD.AC3-EVO[EtMovies] torrent

ETTV Recommended HD
U-571  (War Drama 2000)  Matthew McConaughey  720p  BrRip torrent
The Alien Factor [1978 - USA] sci fi torrent
Annihilation - Horror 2018 Eng Ita Rus Multi-Subs 720p [H264-mp4] torrent
Moonraker (1979)-JAMES BOND-[Roger Moore] 1080p H264 DolbyD 5.1 ūüíé nickarad torrent

ETTV Recommended UHD
Sandy.Wexler.2017.2160p.HDR.WEBRip.DD5.1.HEVC-DDR.mkv torrent
The.Week.Of.2018.2160p.HDR.WEBRip.DD5.1.HEVC-DDR.mkv torrent
Star Wars Return of the Jedi 1983 2160p UHD-Film OTD83 v1.0 oohteedee torrent
The.Way.Back.2020.4K.MULTI.2160p.HDR.WEB.DDP.5.1.HEVC-DDR.mkv torrent
The.Secret.Garden.2020.HDR.2160p.DDP.5.1.HEVC-DDR.mkv torrent
Ballon.2018.BluRay.2160p.HDR.Atmos.7.1.HEVC-DDR.mkv torrent

ETTV Recommended Cam
The Hunt 2020 HDCAM x264 AC3-ETRG torrent
The Burnt Orange Heresy 2020 720p HDCAM-C1NEM4 torrent

ETTV Recommended Foreign
Genese.[Genesis].2018.720p.WEBRip.x264.HORiZON-ArtSubs torrent
Valleem Thetti Pulleem Thetti (2020) 720p Hindi Dubbed WEB-DL x264 AAC 800MB - MOVCR torrent
Battle Of Empire Fetih 1453 (2012) Urdu Dubbed Hd 720p ESubs [FPRG] torrent
Teray.Pyar.Mai.2020.Urdu.1080p.AMZN.WEB-DL.DDP2.0.H.264-Telly torrent
Tomtesterom 2008 HDRIP HC [BrightShadow] torrent
Dil.Tera.Hogaya.2020.Urdu.1080p.AMZN.WEB-DL.DDP2.0.H.264-Telly torrent

ETTV Recommended Music
Queen  - A Kind Of Magic - 1986 - MP3 - 320KBPS - G&U torrent
 Washed Out - Purple Noon (2020) [Hi-Res]  torrent
VA - New Music Releases Week 31 of 2020 (Mp3 320kbps Songs) [PMEDIA] ‚≠źÔłŹ torrent
120 Tracks Rush ~Greatest Hits Songs Playlist Spotify Mp3~[320]  kbps Beats‚≠ź torrent
Headdock - Techno Syndrome 09-08-2020 [2CD] [2Bonus CD] {1337x} torrent
[ambient] (2020) Llyn Y Cwn - Dinorwic [FLAC] [DarkAngie] torrent


Download Torrent "Motherless.Brooklyn.2019.HDR.2160p.WEBRiP.DTS-HD.MA.5.1.HEVC-DDR.mkv"

IMDB Details
Description:

In 1950s New York, a lonely private detective afflicted with Tourette's Syndrome ventures to solve the murder of his mentor and only friend.

Genre:

Crime, Drama, Mystery

Download Torrent (Magnet)
Download Torrent (File)

Seeds: 138
Leechers: 93

Uploaded by:
DDR


Category:
Movies > UltraHD/4K


Details
Title:Motherless.Brooklyn.2019.HDR.2160p.WEBRiP.DTS-HD.MA.5.1.HEVC-DDR.mkv
Description:






General
Unique ID                                : 149613283778570521338697015979637388365 (0x708E7867982BEC3B932FC4A48CB6B44D)
Complete name                            : D:\00_demux\Motherless.Brooklyn.2019.HDR.2160p.WEBRiP.DTS-HD.MA.5.1.HEVC-DDR.mkv
Format                                   : Matroska
Format version                           : Version 4
File size                                : 12.2 GiB
Duration                                 : 2 h 24 min
Overall bit rate mode                    : Variable
Overall bit rate                         : 12.1 Mb/s
Encoded date                             : UTC 2020-07-26 19:02:51
Writing application                      : mkvmerge v47.0.0 ('Black Flag') 64-bit
Writing library                          : libebml v1.3.10 + libmatroska v1.5.2

Video
ID                                       : 1
Format                                   : HEVC
Format/Info                              : High Efficiency Video Coding
Commercial name                          : HDR10
Format profile¬†¬†¬†¬†¬†¬†¬†¬†¬†¬†¬†¬†¬†¬†¬†¬†¬†¬†¬†¬†¬†¬†¬†¬†¬†¬† : Main [email protected]@High
Codec ID                                 : V_MPEGH/ISO/HEVC
Duration                                 : 2 h 24 min
Bit rate                                 : 9 899 kb/s
Width                                    : 3 840 pixels
Height                                   : 2 072 pixels
Display aspect ratio                     : 1.85:1
Frame rate mode                          : Constant
Frame rate                               : 23.976 (24000/1001) FPS
Color space                              : YUV
Chroma subsampling                       : 4:2:0
Bit depth                                : 10 bits
Bits/(Pixel*Frame)                       : 0.052
Stream size                              : 9.98 GiB (82%)
Language                                 : English
Default                                  : Yes
Forced                                   : No
Color range                              : Limited
Color primaries                          : BT.2020
Transfer characteristics                 : PQ
Matrix coefficients                      : BT.2020 non-constant
Mastering display color primaries        : Display P3
Mastering display luminance              : min: 0.0001 cd/m2, max: 1000 cd/m2
Maximum Content Light Level              : 475 cd/m2
Maximum Frame-Average Light Level        : 55 cd/m2

Audio
ID                                       : 2
Format                                   : DTS XLL
Format/Info                              : Digital Theater Systems
Commercial name                          : DTS-HD Master Audio
Codec ID                                 : A_DTS
Duration                                 : 2 h 24 min
Bit rate mode                            : Variable
Bit rate                                 : 2 163 kb/s
Channel(s)                               : 6 channels
Channel layout                           : C L R Ls Rs LFE
Sampling rate                            : 48.0 kHz
Frame rate                               : 93.750 FPS (512 SPF)
Bit depth                                : 16 bits
Compression mode                         : Lossless
Delay relative to video                  : 8 ms
Stream size                              : 2.18 GiB (18%)
Language                                 : English
Default                                  : Yes
Forced                                   : No




MikeKhan /Desitorrents.tv

Category:Movies > UltraHD/4K
Lang:English  English
Total Size:12.16 GB
Info Hash:b94b18c4b1655e23c0bb3448e8af03170a1ade0d
Added By:DDR
Date Added:26-07-2020 21:39:45

  

Files

File List: 
 File Size
Motherless.Brooklyn.2019.HDR.2160p.WEBRiP.DTS-HD.MA.5.1.HEVC-DDR.mkv12.16 GB



Comments

There are currently no comments. Be the first one to write something !