Yellowstone snowpiercer XXX Avengers Endgame 2019 etmovies condor Sonic the Hedgehog 2020 Artemis Fowl 2020 aew Deadliest Catch S16E12 rq.mp4 Condor S02E05 365 Days 2020 Birds of Prey (and the Fantabulous Emancipation of One Harley Quinn) 2020 The 100 S07E07 Lost Bullet 2020 stargirl Doom Patrol s02e03 evo Eurovision Song Contest The Story of Fire Saga 2020 wwe Bad Boys for Life 2020 The 100 S07E06 Marvels Agents of S.H.I.E.L.D. S07E06  Yellowstone S03E02 Force of Nature 2020 arrow español 0 2160p Snowpiercer S01E07 Tehran S01E01 Knives Out 2019 Greenleaf S05E02 The King of Staten Island 2020 Blindspot Doom Patrol S02E04 trolls world tour 2020 Perry Mason S01E01 Ford v Ferrari 2019 Perry Mason s01e02 You Should Have Left 2020 dc week ethd ettv Dark etrg agents Counting Cars S09E05 the 100 ddr Seal Team Scoob! 2020 Brazzers Best Of Brazzers marvel week billions agents of warrior nun Irresistible 2020 Doom Patrol s02e01 The Invisible Man 2020 Dirty John S02E06 Dark S01E01 Doom Patrol s02e02 Americas Got Talent S15E06 Stargirl s01e07 hindi The Challenge S35E14 yts Doom Patrol 
Warning! Use a VPN When Downloading Torrents!
Your IP Address is 35.173.215.75. Location United States
Your Internet Provider can see when you download torrents! Hide your IP Address with a VPN
ETTV warns: You should use VPN to hide your torrenting. HIDE ME NOW
ETTV Recommended TV Shows
The.100.S07E07.720p.HEVC.x265-MeGusta[ettv] torrent
AEW Dynamite 2020 07 01 720p WEB h264-HEEL [TJET] torrent
Marvels.Agents.of.S.H.I.E.L.D.S07E06.HDTV.x264-SVA[ettv] torrent
Doom.Patrol.S02E04.480.x264.mSD.ETRG torrent
The Newsroom - Season 1 to 3 - Mp4 x264 AC3 1080p torrent
Warrior.Nun.S01.1080p.NF.WEB-DL.DDP5.1.Atmos.x264-Telly torrent

ETTV Recommended SD
The.Fxxk.It.List.2020.HDRip.XviD.AC3-EVO[EtMovies] torrent
Blood.And.Money.2020.BDRip.x264.AC3-EVO.ETRG torrent
Hope.Gap.2020.BDRip.x264.AC3-EVO.ETRG torrent
The.Swing.of.Things.2020.BRRip.x264.AC3-EVO.ETRG torrent

ETTV Recommended HD
Disclosure.2020.1080p.WEB-DL.H264.AC3-EVO[EtHD] torrent
Unforgiven.1992.BRRip.1080p.HEVC.HDR.Eng.DD5.1.ETRG torrent
The.Quick.and.the.Dead.1995.BRRip.1080p.HEVC.HDR.Eng.DD5.1.ETRG torrent
The.Fxxk.It.List.2019.1080p.NF.WEB-DL.DDP5.1.x264-CMRG[EtHD] torrent

ETTV Recommended UHD
Trolls World Tour.2020.MULTi.2160p.UHD.Blu-ray.Atmos.7.1.HEVC-DDR.mkv torrent
Escape.From.L.A.1996.4K.MULTi.2160p.HDR.WEBRip.TrueHD.5.1.HEVC-DDR.mkv torrent
INXS - Live Baby Live 1991 (2020).UHD.Bluray.2160p.HDR.Atmos.7.1.HEVC-DDR.mkv torrent
Tropic.Thunder.2008.MULTi.TC.2160p.HDR.WEBRip.DTS-HDMA.5.1.HEVC-DDR.mkv torrent

ETTV Recommended Cam
The Hunt 2020 HDCAM x264 AC3-ETRG torrent
The Burnt Orange Heresy 2020 720p HDCAM-C1NEM4 torrent

ETTV Recommended Foreign
Serenity.2005.1080p.NF.WEB-DL.HIN-ENG.DDP5.1.x264-Telly torrent
Aladdin.and.The.Death.Lamp.2020.HIN-DUB.1080p.MX.Player.WEB-DL.AAC.2.0.x264-Telly torrent
Search and Destroy(2020) HDRip 720p [Hindi-Dub] Dual-Audio x264 - 1XCinema torrent
Die Känguru-Chroniken (2020) HDRip 720p [Hindi-Dub] Dual-Audio x264 - 1XCinema torrent
American Woman (2018) 720p BluRay x264 Eng Subs [Dual Audio] [Hindi DD 2.0 - English 2.0] Exclusive By -=!Dr.STAR!=- torrent
Harriet (2019) BluRay 1080p.H264 Ita Eng AC3 5.1 Sub Ita Eng MIRCrew torrent

ETTV Recommended Music
Simply Red - Live At Montreux 2003 (2012)[BRRip 1080p x264 by alE13 AC3/DTS][Eng] torrent
Syd Barrett Albums [FLAC] [DarkAngie] torrent
FastLife - FastLife 3 Rap Album Mp3~(2020) [320]  kbps Beats⭐ torrent
Trapt - Shadow Work (2020) Mp3 320kbps [PMEDIA] ⭐️ torrent


Download Torrent "Stargirl S01E07 (1080p DCU WEB-DL x265 HEVC 10bit OPUS 5.1 theincognito) [U..."

IMDB Details
Description:

N/A

Genre:

N/A

Download Torrent (Magnet)
Download Torrent (File)

Seeds: 652
Leechers: 223

Uploaded by:
theincognito


Category:
TV > HEVC/x265 (Super High Quality, Small size, high CPU usage)


Details
Title:Stargirl S01E07 (1080p DCU WEB-DL x265 HEVC 10bit OPUS 5.1 theincognito) [U...
Description:





Media Information
General
Format                                   : Matroska
Format version                           : Version 4
File size                                : 708 MiB
Duration                                 : 42 min 27 s
Overall bit rate                         : 2 331 kb/s
Encoded date                             : UTC 2020-06-29 22:22:05
Writing application                      : mkvmerge v48.0.0 ('Fortress Around Your Heart') 64-bit
Writing library                          : libebml v1.4.0 + libmatroska v1.6.0

Video
ID                                       : 1
Format                                   : HEVC
Format/Info                              : High Efficiency Video Coding
Format profile                           : Main [email protected]@Main
Codec ID                                 : V_MPEGH/ISO/HEVC
Duration                                 : 42 min 27 s
Bit rate                                 : 2 008 kb/s
Width                                    : 1 920 pixels
Height                                   : 872 pixels
Display aspect ratio                     : 2.2:1
Frame rate mode                          : Constant
Frame rate                               : 23.976 (24000/1001) FPS
Color space                              : YUV
Chroma subsampling                       : 4:2:0
Bit depth                                : 10 bits
Bits/(Pixel*Frame)                       : 0.050
Stream size                              : 610 MiB (86%)
Writing library                          : x265 3.4+7-g38774073d:[Windows][ICC 1910][64 bit] 10bit
Encoding settings                        : cpuid=1111039 / frame-threads=3 / numa-pools=8 / wpp / no-pmode / no-pme / no-psnr / no-ssim / log-level=2 / input-csp=1 / input-res=1920x872 / interlace=0 / total-frames=61077 / level-idc=0 / high-tier=1 / uhd-bd=0 / ref=4 / no-allow-non-conformance / no-repeat-headers / annexb / no-aud / no-hrd / info / hash=0 / no-temporal-layers / open-gop / min-keyint=23 / keyint=250 / gop-lookahead=0 / bframes=8 / b-adapt=2 / b-pyramid / bframe-bias=0 / rc-lookahead=25 / lookahead-slices=4 / scenecut=40 / hist-scenecut=0 / radl=0 / no-splice / no-intra-refresh / ctu=64 / min-cu-size=8 / no-rect / no-amp / max-tu-size=32 / tu-inter-depth=1 / tu-intra-depth=1 / limit-tu=0 / rdoq-level=2 / dynamic-rd=0.00 / no-ssim-rd / signhide / no-tskip / nr-intra=0 / nr-inter=0 / no-constrained-intra / strong-intra-smoothing / max-merge=3 / limit-refs=3 / limit-modes / me=3 / subme=3 / merange=57 / temporal-mvp / no-frame-dup / no-hme / weightp / no-weightb / no-analyze-src-pics / deblock=0:0 / sao / no-sao-non-deblock / rd=3 / selective-sao=4 / no-early-skip / rskip / no-fast-intra / no-tskip-fast / no-cu-lossless / no-b-intra / no-splitrd-skip / rdpenalty=0 / psy-rd=2.00 / psy-rdoq=1.00 / no-rd-refine / no-lossless / cbqpoffs=0 / crqpoffs=0 / rc=crf / crf=22.0 / qcomp=0.60 / qpstep=4 / stats-write=0 / stats-read=0 / ipratio=1.40 / pbratio=1.30 / aq-mode=3 / aq-strength=1.00 / cutree / zone-count=0 / no-strict-cbr / qg-size=32 / no-rc-grain / qpmax=69 / qpmin=0 / no-const-vbv / sar=0 / overscan=0 / videoformat=5 / range=0 / colorprim=1 / transfer=1 / colormatrix=1 / chromaloc=0 / display-window=0 / cll=0,0 / min-luma=0 / max-luma=1023 / log2-max-poc-lsb=8 / vui-timing-info / vui-hrd-info / slices=1 / no-opt-qp-pps / no-opt-ref-list-length-pps / no-multi-pass-opt-rps / scenecut-bias=0.05 / hist-threshold=0.01 / no-opt-cu-delta-qp / no-aq-motion / no-hdr10 / no-hdr10-opt / no-dhdr10-opt / no-idr-recovery-sei / analysis-reuse-level=0 / analysis-save-reuse-level=0 / analysis-load-reuse-level=0 / scale-factor=0 / refine-intra=0 / refine-inter=0 / refine-mv=1 / refine-ctu-distortion=0 / limit-sao / ctu-info=0 / no-lowpass-dct / refine-analysis-type=0 / copy-pic=1 / max-ausize-factor=1.0 / no-dynamic-refine / no-single-sei / no-hevc-aq / no-svt / no-field / qp-adaptation-range=1.00 / no-scenecut-aware-qpconformance-window-offsets / right=0 / bottom=0 / decoder-max-rate=0
Default                                  : Yes
Forced                                   : No
Color range                              : Limited
Color primaries                          : BT.709
Transfer characteristics                 : BT.709
Matrix coefficients                      : BT.709

Audio
ID                                       : 2
Format                                   : Opus
Codec ID                                 : A_OPUS
Duration                                 : 42 min 27 s
Bit rate                                 : 320 kb/s
Channel(s)                               : 6 channels
Channel layout                           : L R C Ls Rs Cb LFE
Sampling rate                            : 48.0 kHz
Frame rate                               : 50.000 FPS (960 SPF)
Compression mode                         : Lossy
Stream size                              : 97.3 MiB (14%)
Language                                 : English
Default                                  : Yes
Forced                                   : No

Text
ID                                       : 3
Format                                   : UTF-8
Codec ID                                 : S_TEXT/UTF8
Codec ID/Info                            : UTF-8 Plain Text
Duration                                 : 41 min 20 s
Bit rate                                 : 59 b/s
Count of elements                        : 629
Stream size                              : 18.0 KiB (0%)
Language                                 : English
Default                                  : Yes
Forced                                   : No



Source Information
Release: 2160p.DCU



Note From UTR
Whilst we are happy for our releases to be re-posted on a platform we aren't on, please do so in an 'as-is' format. We ask that you do not create a new torrent, include all descriptions you see above including the UTR logo, tags, notes and screenshots. If you'd like to become a permanent poster on a website we don't post to, feel free to get in contact with a UTR member.
If possible please donate for seedboxes.
BTC - 1QA5fum5AyXvWzdVCkQzUNvw3Ef15fHRaR
Monero - 8AuksPSzY7fen3HHT1a2342PgVy4J93MKfXG3AAcayV76miTyJ3sNfn38srwrpLirGfeR5DwhTL8GW8pdQgT7bZcJ25ynMx
Dash - Xh4mNs6uwZdpCEX2HSEVwGvPD7yKxZ1Ccd
Ethereum - 0x51c06c94e74c16735a7a6e841ad29fc90a84eb1f


Category:TV > HEVC/x265
Lang:English  English
Total Size:708 MB
Info Hash:8369940182c5fdb4d889022a62fa95fb964bf325
Added By:theincognito
Date Added:29-06-2020 11:32:28

Files

File List: 
 File Size
Stargirl S01E07 Shiv Part 1 1080p DCU WEB-DL x265 HEVC 10bit OPUS 5.1-theincognito[UTR].mkv708 MB



Comments

There are currently no comments. Be the first one to write something !