the 100 ethd Sonic the Hedgehog 2020 rick and morty s04e09 evo ettv 2160p betaal Scoob! 2020 batwoman the flash The Hunt 2020 insecure The Gentlemen 2020 Birds of Prey (and the Fantabulous Emancipation of One Harley Quinn) 2020 supergirl Extraction 2020 The Blackout hindi hightown Outlander  0 run Snowpiercer S01E02 The Lovebirds 2020 seal team  AEW rick and morty s04e08 legends of tomorrow westworld star wars the rise of skywalker 2019 BILLIONS Hightown S01E02 rq.mp4 etmovies EtHD ddr Stargirl S01E01 The Invisible Man 2020 penny dreadful defending jacob Survive the Night 2020 Good Witch S06E04 Rick and Morty stargirl wwe stargirl s01e02 Penny Dreadful City of Angels S01E05 what we do in the shadows Killing Eve S03E07 Defending Jacob S01E07 Capone 2020 ufc Modern Love s01e07 Live PD s04e65 Billions S05E04 Killing Eve yts Locke  Bloodshot 2020 Harley Quinn Xxx Bad Boys for Life 2020 etrg snowpiercer Blindspot Inheritance 2020 90 Day Fiance Before The 90 Days S04E14 The Wrong Missy 2020 
Warning! Use a VPN When Downloading Torrents!
Your IP Address is 3.235.172.213. Location United States
Your Internet Provider can see when you download torrents! Hide your IP Address with a VPN
ETTV warns: You should use VPN to hide your torrenting. HIDE ME NOW
ETTV Recommended TV Shows
American.Dad.S16E07.HDTV.x264-KILLERS[ettv] torrent
Almost.Paradise.S01E09.HDTV.x264-KILLERS[ettv] torrent
The.Baker.and.the.Beauty.US.S01E07.HDTV.x264-KILLERS[ettv] torrent
WWE RAW 25th May 2020 HDTV x264-TJ [TJET] torrent

ETTV Recommended SD
Jules.Of.Light.And.Dark.2019.HDRip.XviD.AC3-EVO torrent
Straight.Up.2020.HDRip.XviD.AC3-EVO torrent
The.Control.2020.HDRip.XviD.AC3-EVO torrent
Ron.Hoppers.Misfortune.2020.AMZN.HDRip.XViD.AC3-juggs torrent

ETTV Recommended HD
Straight.Up.2020.1080p.WEB-DL.H264.AC3-EVO[EtHD] torrent
The.Control.2020.1080p.WEB-DL.H264.AC3-EVO[EtHD] torrent
Adventures.Of.Rufus.The.Fantastic.Pet.2020.1080p.WEB-DL.H264.AC3-EVO[EtHD] torrent
Blade.Runner.2049.2017.BRRip.1080p.HEVC.HDR.Eng.DD5.1.ETRG torrent

ETTV Recommended UHD
War.of.the.Worlds.2005.4K.HDR.2160p.BDRip Ita Eng x265-NAHOM torrent
The Blues Brothers 1980.MULTi.UHD.BluRay.2160p.HDR.HEVC.DTS-X.7.1-DDR.mkv torrent
Blade.Runner.1982.The.Final.Cut.BDRip.2160p.UHD.HDR.Eng.TrueHD.ETRG torrent
Blade.Runner.2049.2017.BDRip.2160p.UHD.HDR.Eng.TrueHD.ETRG torrent

ETTV Recommended Cam
The Hunt 2020 HDCAM x264 AC3-ETRG torrent
The Burnt Orange Heresy 2020 720p HDCAM-C1NEM4 torrent

ETTV Recommended Foreign
Betaal.S01.2020.UHD.2160p.HDR.WEB-Rip.Atmos.5.1.HEVC-DDR torrent
The.Decline.2020.French.UHD.2160p.HDR.WEBRiP.DDP.5.1.HEVC-DDR[EtHD] torrent
Naukar.Vahuti.Da.2019.720p.AMZN.WEB-DL.DD+5.1.x264-Telly torrent
Rishtey 2002 Hindi 720p AMZN WEBRip x264 AAC 5.1 ESubs - LOKiHD - Telly torrent

Sponsored


Download Torrent "Emma. (2020) (1080p BDRip x265 10bit EAC3 5.1 - DUHiT)[TAoE]"

IMDB Details
Description:

In 1800s England, a well meaning but selfish young woman meddles in the love lives of her friends.

Genre:

Comedy, Drama

Download Torrent (Magnet)
Download Torrent (File)
Seeds: 57
Leechers: 27
Completed: 75 
Last Checked: 23-05-2020 09:26:06


Details
Title:Emma. (2020) (1080p BDRip x265 10bit EAC3 5.1 - DUHiT)[TAoE]
Description:

Media Information

General
Unique ID                                : 179090504466365230418724789715608514413 (0x86BB93978466BAE09D9DA61431BBAF6D)
Complete name                            : Emma. (2020) (1080p BDRip x265 10bit DTS-HD MA 5.1  - DUHiT)[TAoE].mkv
Format                                   : Matroska
Format version                           : Version 4
File size                                : 7.53 GiB
Duration                                 : 2 h 4 min
Overall bit rate mode                    : Variable
Overall bit rate                         : 8 667 kb/s
Movie name                               : Emma. (2020) (1080p BDRip x265 10bit DTS-HD MA 5.1  - DUHiT)[TAoE]
Writing application                      : Lavf58.29.100
Writing library                          : Lavf58.29.100
ErrorDetectionType                       : Per level 1

Video
ID                                       : 1
Format                                   : HEVC
Format/Info                              : High Efficiency Video Coding
Format profile                           : Main [email protected]@Main
Codec ID                                 : V_MPEGH/ISO/HEVC
Duration                                 : 2 h 4 min
Bit rate                                 : 5 149 kb/s
Width                                    : 1 920 pixels
Height                                   : 1 080 pixels
Display aspect ratio                     : 16:9
Frame rate mode                          : Constant
Frame rate                               : 23.976 (24000/1001) FPS
Color space                              : YUV
Chroma subsampling                       : 4:2:0
Bit depth                                : 10 bits
Bits/(Pixel*Frame)                       : 0.104
Stream size                              : 4.47 GiB (59%)
Writing library                          : x265 3.3:[Linux][GCC 9.3.0][64 bit] 10bit
Encoding settings                        : cpuid=1049583 / frame-threads=5 / wpp / no-pmode / no-pme / no-psnr / no-ssim / log-level=2 / input-csp=1 / input-res=1920x1080 / interlace=0 / total-frames=0 / level-idc=0 / high-tier=1 / uhd-bd=0 / ref=4 / no-allow-non-conformance / no-repeat-headers / annexb / no-aud / no-hrd / info / hash=0 / no-temporal-layers / open-gop / min-keyint=23 / keyint=250 / gop-lookahead=0 / bframes=8 / b-adapt=2 / b-pyramid / bframe-bias=0 / rc-lookahead=80 / lookahead-slices=4 / scenecut=40 / hist-scenecut=0 / radl=0 / no-splice / no-intra-refresh / ctu=64 / min-cu-size=8 / no-rect / no-amp / max-tu-size=32 / tu-inter-depth=1 / tu-intra-depth=1 / limit-tu=0 / rdoq-level=2 / dynamic-rd=0.00 / no-ssim-rd / signhide / no-tskip / nr-intra=0 / nr-inter=0 / no-constrained-intra / strong-intra-smoothing / max-merge=3 / limit-refs=3 / limit-modes / me=3 / subme=5 / merange=57 / temporal-mvp / no-frame-dup / no-hme / weightp / no-weightb / no-analyze-src-pics / deblock=-2:-2 / no-sao / no-sao-non-deblock / rd=6 / selective-sao=0 / no-early-skip / rskip / no-fast-intra / no-tskip-fast / no-cu-lossless / no-b-intra / no-splitrd-skip / rdpenalty=0 / psy-rd=1.30 / psy-rdoq=2.00 / no-rd-refine / no-lossless / cbqpoffs=0 / crqpoffs=0 / rc=crf / crf=17.9 / qcomp=0.60 / qpstep=4 / stats-write=0 / stats-read=0 / ipratio=1.40 / pbratio=1.30 / aq-mode=4 / aq-strength=1.10 / cutree / zone-count=0 / no-strict-cbr / qg-size=32 / no-rc-grain / qpmax=69 / qpmin=0 / no-const-vbv / sar=1 / overscan=0 / videoformat=5 / range=0 / colorprim=2 / transfer=2 / colormatrix=2 / chromaloc=0 / display-window=0 / cll=0,0 / min-luma=0 / max-luma=1023 / log2-max-poc-lsb=8 / vui-timing-info / vui-hrd-info / slices=1 / no-opt-qp-pps / no-opt-ref-list-length-pps / no-multi-pass-opt-rps / scenecut-bias=0.05 / hist-threshold=0.01 / no-opt-cu-delta-qp / no-aq-motion / no-hdr10 / no-hdr10-opt / no-dhdr10-opt / no-idr-recovery-sei / analysis-reuse-level=0 / analysis-save-reuse-level=0 / analysis-load-reuse-level=0 / scale-factor=0 / refine-intra=0 / refine-inter=0 / refine-mv=1 / refine-ctu-distortion=0 / no-limit-sao / ctu-info=0 / no-lowpass-dct / refine-analysis-type=0 / copy-pic=1 / max-ausize-factor=1.0 / no-dynamic-refine / no-single-sei / no-hevc-aq / no-svt / no-field / qp-adaptation-range=1.00 / no-scenecut-aware-qpconformance-window-offsets / right=0 / bottom=0
Default                                  : Yes
Forced                                   : No
Color range                              : Limited

Audio
ID                                       : 2
Format                                   : DTS XLL
Format/Info                              : Digital Theater Systems
Commercial name                          : DTS-HD Master Audio
Codec ID                                 : A_DTS
Duration                                 : 2 h 4 min
Bit rate mode                            : Variable
Bit rate                                 : 3 395 kb/s
Channel(s)                               : 6 channels
Channel layout                           : C L R Ls Rs LFE
Sampling rate                            : 48.0 kHz
Frame rate                               : 93.750 FPS (512 SPF)
Bit depth                                : 24 bits
Compression mode                         : Lossless
Stream size                              : 2.95 GiB (39%)
Title                                    : DTS-HD.MA5.1
Language                                 : English
Default                                  : Yes
Forced                                   : No

Text #1
ID                                       : 3
Format                                   : PGS
Codec ID                                 : S_HDMV/PGS
Codec ID/Info                            : Picture based subtitle format used on BDs/HD-DVDs
Duration                                 : 2 h 2 min
Bit rate                                 : 42.7 kb/s
Count of elements                        : 3028
Stream size                              : 37.5 MiB (0%)
Title                                    : SDH
Language                                 : English
Default                                  : Yes
Forced                                   : No

Text #2
ID                                       : 4
Format                                   : PGS
Codec ID                                 : S_HDMV/PGS
Codec ID/Info                            : Picture based subtitle format used on BDs/HD-DVDs
Duration                                 : 2 h 3 min
Bit rate                                 : 34.8 kb/s
Count of elements                        : 2586
Stream size                              : 30.7 MiB (0%)
Language                                 : Spanish
Default                                  : No
Forced                                   : No

Text #3
ID                                       : 5
Format                                   : PGS
Codec ID                                 : S_HDMV/PGS
Codec ID/Info                            : Picture based subtitle format used on BDs/HD-DVDs
Duration                                 : 2 h 3 min
Bit rate                                 : 38.6 kb/s
Count of elements                        : 2580
Stream size                              : 34.1 MiB (0%)
Language                                 : French
Default                                  : No
Forced                                   : No

Text #4
ID                                       : 6
Format                                   : PGS
Codec ID                                 : S_HDMV/PGS
Codec ID/Info                            : Picture based subtitle format used on BDs/HD-DVDs
Duration                                 : 2 h 3 min
Bit rate                                 : 267 b/s
Count of elements                        : 26
Stream size                              : 242 KiB (0%)
Language                                 : French
Default                                  : No
Forced                                   : No

Menu
00:00:00.000                             : :Chapter 01
00:07:32.827                             : :Chapter 02
00:11:26.311                             : :Chapter 03
00:16:21.564                             : :Chapter 04
00:21:52.603                             : :Chapter 05
00:25:30.988                             : :Chapter 06
00:31:46.613                             : :Chapter 07
00:35:59.657                             : :Chapter 08
00:44:14.277                             : :Chapter 09
00:47:31.724                             : :Chapter 10
00:56:16.790                             : :Chapter 11
01:00:16.321                             : :Chapter 12
01:05:16.329                             : :Chapter 13
01:09:28.289                             : :Chapter 14
01:18:26.535                             : :Chapter 15
01:25:05.058                             : :Chapter 16
01:35:06.659                             : :Chapter 17
01:43:40.965                             : :Chapter 18
01:55:16.576                             : :Chapter 19
01:57:23.036                             : :Chapter 20




Source Information

General
Unique ID                                : 305992514689237282274760131136309774056 (0xE63403C20EC49D2804F5548D14BD46E8)
Complete name                            : Emma.2020.1080p.BluRay.REMUX.AVC.DTS-HD.MA5.1-iFT.mkv
Format                                   : Matroska
Format version                           : Version 4
File size                                : 30.5 GiB
Duration                                 : 2 h 4 min
Overall bit rate mode                    : Variable
Overall bit rate                         : 35.2 Mb/s
Encoded date                             : UTC 2020-05-10 18:04:26
Writing application                      : mkvmerge v46.0.0 ('No Deeper Escape') 64-bit
Writing library                          : libebml v1.3.10 + libmatroska v1.5.2

Video
ID                                       : 1
Format                                   : AVC
Format/Info                              : Advanced Video Codec
Format profile                           : [email protected]
Format settings                          : CABAC / 2 Ref Frames
Format settings, CABAC                   : Yes
Format settings, Reference frames        : 2 frames
Format settings, GOP                     : M=1, N=10
Codec ID                                 : V_MPEG4/ISO/AVC
Duration                                 : 2 h 4 min
Bit rate mode                            : Variable
Bit rate                                 : 31.5 Mb/s
Width                                    : 1 920 pixels
Height                                   : 1 080 pixels
Display aspect ratio                     : 16:9
Frame rate mode                          : Constant
Frame rate                               : 23.976 (24000/1001) FPS
Color space                              : YUV
Chroma subsampling                       : 4:2:0
Bit depth                                : 8 bits
Scan type                                : Progressive
Bits/(Pixel*Frame)                       : 0.634
Stream size                              : 27.4 GiB (90%)
Default                                  : Yes
Forced                                   : No

Audio #1
ID                                       : 2
Format                                   : DTS XLL
Format/Info                              : Digital Theater Systems
Commercial name                          : DTS-HD Master Audio
Codec ID                                 : A_DTS
Duration                                 : 2 h 4 min
Bit rate mode                            : Variable
Bit rate                                 : 3 395 kb/s
Channel(s)                               : 6 channels
Channel layout                           : C L R Ls Rs LFE
Sampling rate                            : 48.0 kHz
Frame rate                               : 93.750 FPS (512 SPF)
Bit depth                                : 24 bits
Compression mode                         : Lossless
Stream size                              : 2.95 GiB (10%)
Title                                    : DTS-HD.MA5.1
Language                                 : English
Default                                  : Yes
Forced                                   : No

Audio #2
ID                                       : 3
Format                                   : AC-3
Format/Info                              : Audio Coding 3
Commercial name                          : Dolby Digital
Codec ID                                 : A_AC3
Duration                                 : 2 h 4 min
Bit rate mode                            : Constant
Bit rate                                 : 192 kb/s
Channel(s)                               : 2 channels
Channel layout                           : L R
Sampling rate                            : 48.0 kHz
Frame rate                               : 31.250 FPS (1536 SPF)
Compression mode                         : Lossy
Stream size                              : 171 MiB (1%)
Title                                    : Commentary by Director Autumn de Wilde  Writers Eleanor Catton / Christopher Blauvelt
Language                                 : English
Service kind                             : Complete Main
Default                                  : No
Forced                                   : No

Text #1
ID                                       : 4
Format                                   : PGS
Muxing mode                              : zlib
Codec ID                                 : S_HDMV/PGS
Codec ID/Info                            : Picture based subtitle format used on BDs/HD-DVDs
Duration                                 : 2 h 2 min
Bit rate                                 : 42.7 kb/s
Count of elements                        : 3028
Stream size                              : 37.5 MiB (0%)
Title                                    : SDH
Language                                 : English
Default                                  : Yes
Forced                                   : No

Text #2
ID                                       : 5
Format                                   : PGS
Muxing mode                              : zlib
Codec ID                                 : S_HDMV/PGS
Codec ID/Info                            : Picture based subtitle format used on BDs/HD-DVDs
Duration                                 : 2 h 3 min
Bit rate                                 : 34.8 kb/s
Count of elements                        : 2586
Stream size                              : 30.7 MiB (0%)
Language                                 : Spanish
Default                                  : No
Forced                                   : No

Text #3
ID                                       : 6
Format                                   : PGS
Muxing mode                              : zlib
Codec ID                                 : S_HDMV/PGS
Codec ID/Info                            : Picture based subtitle format used on BDs/HD-DVDs
Duration                                 : 2 h 3 min
Bit rate                                 : 38.6 kb/s
Count of elements                        : 2580
Stream size                              : 34.1 MiB (0%)
Language                                 : French
Default                                  : No
Forced                                   : No

Text #4
ID                                       : 7
Format                                   : PGS
Muxing mode                              : zlib
Codec ID                                 : S_HDMV/PGS
Codec ID/Info                            : Picture based subtitle format used on BDs/HD-DVDs
Duration                                 : 2 h 3 min
Bit rate                                 : 267 b/s
Count of elements                        : 26
Stream size                              : 242 KiB (0%)
Language                                 : French
Default                                  : No
Forced                                   : No

Menu
00:00:00.000                             : en:Chapter 01
00:07:32.827                             : en:Chapter 02
00:11:26.311                             : en:Chapter 03
00:16:21.564                             : en:Chapter 04
00:21:52.603                             : en:Chapter 05
00:25:30.988                             : en:Chapter 06
00:31:46.613                             : en:Chapter 07
00:35:59.657                             : en:Chapter 08
00:44:14.277                             : en:Chapter 09
00:47:31.724                             : en:Chapter 10
00:56:16.790                             : en:Chapter 11
01:00:16.321                             : en:Chapter 12
01:05:16.329                             : en:Chapter 13
01:09:28.289                             : en:Chapter 14
01:18:26.535                             : en:Chapter 15
01:25:05.058                             : en:Chapter 16
01:35:06.659                             : en:Chapter 17
01:43:40.965                             : en:Chapter 18
01:55:16.576                             : en:Chapter 19
01:57:23.036                             : en:Chapter 20




Hello everyone,
We are TAoE, a small team of passionate encoders who love encoding. We try our best to provide you with high quality releases.

Requests for movies and shows are welcome.
We have a form for encode requests which can be found here
Encode requests form
submit your request and it will be added to our encoding request list
You can view our encoding request list here
Encode requests list


When or if we encode it will depend on if we can obtain a good source to encode with and
if one of the TAoE encoders chooses to encode it. Unfortunately we are not able to encode everything,
new members are welcome as that helps us encode more content!

If you would like to join TAoE submit your request here!
TAoE member applications form





.........................................................................................................................................

Category:Movies > HEVC/x265
Lang:English  English
Total Size:4.96 GB
Info Hash:b8c4f4a530c4268af7a9e77d1fe72f162f5b80f5
Added By:Goki
Date Added:23-05-2020 09:26:01

Files

File List: 
 File Size
Emma. (2020) (1080p BDRip x265 10bit EAC3 5.1 - DUHiT)[TAoE].mkv4.96 GB



Comments

There are currently no comments. Be the first one to write something !