Greys Anatomy Brazzers Best Of Brazzers Americas Got Talent S15E02 Westworld Last Week Tonight The Blackout Invasion Earth 2019 agents arrow español the 100 s07e03 ita aew  Billions S05E05 alex rider The Challenge S35E10 big bang theory español Chicago Med The Secret of Skinwalker Ranch S01E08 Hindi snowpiercer wwe Killing Eve agents of Snowpiercer S01E03 hindi dubbed the flash Marvels Agents of S.H.I.E.L.D. S07E02 The Hunt 2020 space force the 100 ethd etrg billions The Real Housewives of Beverly Hills S10E08 Dirty John S02E01 Chicago Fire 2160p HINDI 2020 Legends of Tomorrow Agents of SHIELD Blindspot ettv the challenge Space Force s01e02 ddr DCs Legends of Tomorrow S05E15 DC Week Survive the Night 2020 Seal Team Rick and Morty S04E10 Marvel Week XXX rick and morty minx Stargirl What We Do in the Shadows S02E09 Stargirl S01E03 rq.mp4 evo what we do in the shadows locke and key s01e06 american dad Scoob! 2020 Marvels Agents of S.H.I.E.L.D. S07E01 Deadliest Catch S16E08 yts game of thrones Space Force S01E01 dirty john etmovies 
Warning! Use a VPN When Downloading Torrents!
Your IP Address is 34.204.176.125. Location United States
Your Internet Provider can see when you download torrents! Hide your IP Address with a VPN
ETTV warns: You should use VPN to hide your torrenting. HIDE ME NOW
ETTV Recommended TV Shows
The.100.S07E03.WEB.H264-ALiGN[ettv] torrent
Man.With.a.Plan.S04E12.720p.x265.ETRG torrent
In.the.Dark.2019.S02E08.HDTV.x264-SVA[ettv] torrent
Blindspot.S05E04.HDTV.x264-SVA[ettv] torrent

ETTV Recommended SD
Equal.Standard.2020.HDRip.XviD.AC3-EVO torrent
They.Reach.2020.BRRip.XviD.AC3-EVO torrent
Acrylic.2020.HDRip.XviD.AC3-EVO torrent
Think.Like.a.Dog.2020.BDRip.XviD.AC3-EVO torrent

ETTV Recommended HD
Becky.2020.1080p.WEB-DL.H264.AC3-EVO[EtHD] torrent
The.Deeper.You.Dig.2019.1080p.WEB-DL.H264.AC3-EVO[EtHD] torrent
The.Last.Days.of.American.Crime.2020.NF.WEB-DL.DDP2.0.x264-CMRG[EtHD] torrent
Shutter.Island.2010.BRRip.1080p.HEVC.HDR.Eng.DD5.1.ETRG torrent

ETTV Recommended UHD
Last.Flag.Flying.2017.UHD.2160p.HDR.WebRip.DDP.5.1.HEVC-DDR.mkv torrent
Suicide.Squad.Hell.to.Pay.2018.MULTi.UHD.BluRay.2160p.HDR.DTS-HDMA.5.1.HEVC-DDR.mkv torrent
The.Shining.1980.BDRip.2160p.UHD.HDR.Eng.DTS-HD.MA.ETRG torrent
Shutter.Island.2010.BDRip.2160p.UHD.HDR.Eng.DTS-HD.MA.ETRG torrent

ETTV Recommended Cam
The Hunt 2020 HDCAM x264 AC3-ETRG torrent
The Burnt Orange Heresy 2020 720p HDCAM-C1NEM4 torrent

ETTV Recommended Foreign
Chintu.Ka.Birthday.2020.1080p.ZEE5.WEB-DL.AAC.2.0.H.264-Telly torrent
Devdas (2002) Hindi (2160p Upscaled WEBRip x265 HEVC 10bit DDP 5.1 ESub) - [Musafirboy] torrent
Choked.Paisa.Bolta.Hai.2020.1080p.NF.WEB-DL.DDP5.1.x264-Telly torrent
Aani Kay Hava 2019 Season 1 Marathi 1080p Web-DL x264 AAC [TMB] torrent
Guardiani dei mondi (2018) [BluRay Rip 1080p ITA-RUS DTS-AC3 SUBS] [M@HD] torrent
Motel Acacia (2019) HDRip 720p [Hindi-Dub] Dual-Audio x264 - 1XCinema torrent

Sponsored


Download Torrent "Top Gun (1986) RM4K (1080p BDRip x265 10bit TrueHD 7.1 Atmos - r0b0t) [TAoE..."

IMDB Details
Description:

As students at the United States Navy's elite fighter weapons school compete to be best in the class, one daring young pilot learns a few things from a civilian instructor that are not taught in the classroom.

Genre:

Action, Drama

Download Torrent (Magnet)
Download Torrent (File)
Seeds: 71
Leechers: 81
Completed: 127 
Last Checked: 23-05-2020 08:27:58


Details
Title:Top Gun (1986) RM4K (1080p BDRip x265 10bit TrueHD 7.1 Atmos - r0b0t) [TAoE...
Description:

Source
Top Gun 1986 4K Remaster 1080p BluRay REMUX AVC Atmos 7.1-PmP  

Media Information
General
Unique ID                   : 195125812564357595391412750547736200489 (0x92CBDD521AA4945EDE54DF5E6F460529)
Complete name               : Top Gun (1986) RM4K (1080p BDRip x265 10bit TrueHD 7.1 Atmos - r0b0t) [TAoE].mkv
Format                      : Matroska
Format version              : Version 4
File size                   : 9.67 GiB
Duration                    : 1 h 49 min
Overall bit rate mode       : Variable
Overall bit rate            : 12.6 Mb/s
Encoded date                : UTC 2020-05-23 03:21:43
Writing application         : mkvmerge v44.0.0 ('Domino') 64-bit
Writing library             : libebml v1.3.10 + libmatroska v1.5.2 / Lavf58.29.100

Video
ID                          : 1
Format                      : HEVC
Format/Info                 : High Efficiency Video Coding
Format profile              : Main [email protected]@Main
Codec ID                    : V_MPEGH/ISO/HEVC
Duration                    : 1 h 49 min
Bit rate                    : 7 633 kb/s
Width                       : 1 920 pixels
Height                      : 1 080 pixels
Display aspect ratio        : 16:9
Frame rate mode             : Constant
Frame rate                  : 23.976 (24000/1001) FPS
Color space                 : YUV
Chroma subsampling          : 4:2:0
Bit depth                   : 10 bits
Bits/(Pixel*Frame)          : 0.154
Stream size                 : 5.84 GiB (60%)
Title                       : Encoded by r0b0t for TAoE using Shinguru V1.2
Writing library             : x265 3.2+35-acc5d16999e2:[Windows][GCC 9.2.1][64 bit] 10bit
Encoding settings           : cpuid=1111039 / frame-threads=5 / numa-pools=12,12,12,12 / wpp / no-pmode / no-pme / no-psnr / no-ssim / log-level=2 / input-csp=1 / input-res=1920x1080 / interlace=0 / total-frames=0 / level-idc=0 / high-tier=1 / uhd-bd=0 / ref=4 / no-allow-non-conformance / no-repeat-headers / annexb / no-aud / no-hrd / info / hash=0 / no-temporal-layers / open-gop / min-keyint=23 / keyint=250 / gop-lookahead=0 / bframes=8 / b-adapt=2 / b-pyramid / bframe-bias=0 / rc-lookahead=80 / lookahead-slices=4 / scenecut=40 / hist-scenecut=0 / radl=0 / no-splice / no-intra-refresh / ctu=64 / min-cu-size=8 / no-rect / no-amp / max-tu-size=32 / tu-inter-depth=1 / tu-intra-depth=1 / limit-tu=0 / rdoq-level=2 / dynamic-rd=0.00 / no-ssim-rd / signhide / no-tskip / nr-intra=0 / nr-inter=0 / no-constrained-intra / no-strong-intra-smoothing / max-merge=3 / limit-refs=3 / limit-modes / me=3 / subme=5 / merange=57 / temporal-mvp / no-frame-dup / no-hme / weightp / no-weightb / no-analyze-src-pics / deblock=0:0 / sao / no-sao-non-deblock / rd=4 / selective-sao=4 / no-early-skip / rskip / no-fast-intra / no-tskip-fast / no-cu-lossless / no-b-intra / no-splitrd-skip / rdpenalty=0 / psy-rd=1.30 / psy-rdoq=2.00 / no-rd-refine / no-lossless / cbqpoffs=0 / crqpoffs=0 / rc=crf / crf=21.0 / qcomp=0.60 / qpstep=4 / stats-write=0 / stats-read=0 / ipratio=1.40 / pbratio=1.30 / aq-mode=4 / aq-strength=1.10 / cutree / zone-count=0 / no-strict-cbr / qg-size=32 / no-rc-grain / qpmax=69 / qpmin=0 / no-const-vbv / sar=1 / overscan=0 / videoformat=5 / range=0 / colorprim=2 / transfer=2 / colormatrix=2 / chromaloc=0 / display-window=0 / cll=0,0 / min-luma=0 / max-luma=1023 / log2-max-poc-lsb=8 / vui-timing-info / vui-hrd-info / slices=1 / no-opt-qp-pps / no-opt-ref-list-length-pps / no-multi-pass-opt-rps / scenecut-bias=0.05 / hist-threshold=0.01 / no-opt-cu-delta-qp / no-aq-motion / no-hdr10 / no-hdr10-opt / no-dhdr10-opt / no-idr-recovery-sei / analysis-reuse-level=0 / analysis-save-reuse-level=0 / analysis-load-reuse-level=0 / scale-factor=0 / refine-intra=0 / refine-inter=0 / refine-mv=1 / refine-ctu-distortion=0 / no-limit-sao / ctu-info=0 / no-lowpass-dct / refine-analysis-type=0 / copy-pic=1 / max-ausize-factor=1.0 / no-dynamic-refine / no-single-sei / no-hevc-aq / no-svt / no-field / qp-adaptation-range=1.00 / no-scenecut-aware-qpconformance-window-offsets / right=0 / bottom=0
Language                    : English
Default                     : Yes
Forced                      : No
Color range                 : Limited

Audio #1
ID                          : 2
Format                      : MLP FBA 16-ch
Format/Info                 : Meridian Lossless Packing FBA with 16-channel presentation
Commercial name             : Dolby TrueHD with Dolby Atmos
Codec ID                    : A_TRUEHD
Duration                    : 1 h 49 min
Bit rate mode               : Variable
Bit rate                    : 4 476 kb/s
Maximum bit rate            : 8 049 kb/s
Channel(s)                  : 8 channels
Channel layout              : L R C LFE Ls Rs Lb Rb
Sampling rate               : 48.0 kHz
Frame rate                  : 1 200.000 FPS (40 SPF)
Compression mode            : Lossless
Stream size                 : 3.42 GiB (35%)
Language                    : English
Default                     : Yes
Forced                      : No
Number of dynamic objects   : 11
Bed channel count           : 1 channel
Bed channel configuration   : LFE

Audio #2
ID                          : 3
Format                      : AC-3
Format/Info                 : Audio Coding 3
Commercial name             : Dolby Digital
Codec ID                    : A_AC3
Duration                    : 1 h 49 min
Bit rate mode               : Constant
Bit rate                    : 224 kb/s
Channel(s)                  : 2 channels
Channel layout              : L R
Sampling rate               : 48.0 kHz
Frame rate                  : 31.250 FPS (1536 SPF)
Compression mode            : Lossy
Stream size                 : 175 MiB (2%)
Title                       : Commentary by producer Jerry Bruckheimer, director Tony Scott, co-screenwriter Jack Epps Jr. and Naval Experts
Language                    : English
Service kind                : Complete Main
Default                     : No
Forced                      : No

Text #1
ID                          : 4
Format                      : PGS
Muxing mode                 : zlib
Codec ID                    : S_HDMV/PGS
Codec ID/Info               : Picture based subtitle format used on BDs/HD-DVDs
Duration                    : 1 h 40 min
Bit rate                    : 38.7 kb/s
Count of elements           : 2782
Stream size                 : 27.8 MiB (0%)
Language                    : English
Default                     : No
Forced                      : No

Text #2
ID                          : 5
Format                      : PGS
Muxing mode                 : zlib
Codec ID                    : S_HDMV/PGS
Codec ID/Info               : Picture based subtitle format used on BDs/HD-DVDs
Duration                    : 1 h 42 min
Bit rate                    : 40.5 kb/s
Count of elements           : 2998
Stream size                 : 29.8 MiB (0%)
Title                       : SDH
Language                    : English
Default                     : No
Forced                      : No

Text #3
ID                          : 6
Format                      : PGS
Muxing mode                 : zlib
Codec ID                    : S_HDMV/PGS
Codec ID/Info               : Picture based subtitle format used on BDs/HD-DVDs
Duration                    : 1 h 48 min
Bit rate                    : 24.0 kb/s
Count of elements           : 2426
Stream size                 : 18.7 MiB (0%)
Language                    : Danish
Default                     : No
Forced                      : No

Text #4
ID                          : 7
Format                      : PGS
Muxing mode                 : zlib
Codec ID                    : S_HDMV/PGS
Codec ID/Info               : Picture based subtitle format used on BDs/HD-DVDs
Duration                    : 1 h 48 min
Bit rate                    : 26.1 kb/s
Count of elements           : 2178
Stream size                 : 20.3 MiB (0%)
Language                    : Dutch
Default                     : No
Forced                      : No

Text #5
ID                          : 8
Format                      : PGS
Muxing mode                 : zlib
Codec ID                    : S_HDMV/PGS
Codec ID/Info               : Picture based subtitle format used on BDs/HD-DVDs
Duration                    : 1 h 48 min
Bit rate                    : 26.8 kb/s
Count of elements           : 2230
Stream size                 : 20.8 MiB (0%)
Language                    : Finnish
Default                     : No
Forced                      : No

Text #6
ID                          : 9
Format                      : PGS
Muxing mode                 : zlib
Codec ID                    : S_HDMV/PGS
Codec ID/Info               : Picture based subtitle format used on BDs/HD-DVDs
Duration                    : 1 h 48 min
Bit rate                    : 27.3 kb/s
Count of elements           : 2490
Stream size                 : 21.2 MiB (0%)
Language                    : French
Default                     : No
Forced                      : No

Text #7
ID                          : 10
Format                      : PGS
Muxing mode                 : zlib
Codec ID                    : S_HDMV/PGS
Codec ID/Info               : Picture based subtitle format used on BDs/HD-DVDs
Duration                    : 1 h 43 min
Bit rate                    : 18.9 kb/s
Count of elements           : 1898
Stream size                 : 14.0 MiB (0%)
Language                    : Japanese
Default                     : No
Forced                      : No

Text #8
ID                          : 11
Format                      : PGS
Muxing mode                 : zlib
Codec ID                    : S_HDMV/PGS
Codec ID/Info               : Picture based subtitle format used on BDs/HD-DVDs
Duration                    : 1 h 48 min
Bit rate                    : 27.8 kb/s
Count of elements           : 2508
Stream size                 : 21.6 MiB (0%)
Language                    : Norwegian
Default                     : No
Forced                      : No

Text #9
ID                          : 12
Format                      : PGS
Muxing mode                 : zlib
Codec ID                    : S_HDMV/PGS
Codec ID/Info               : Picture based subtitle format used on BDs/HD-DVDs
Duration                    : 1 h 48 min
Bit rate                    : 31.0 kb/s
Count of elements           : 2418
Stream size                 : 24.1 MiB (0%)
Title                       : Brazilian
Language                    : Portuguese
Default                     : No
Forced                      : No

Text #10
ID                          : 13
Format                      : PGS
Muxing mode                 : zlib
Codec ID                    : S_HDMV/PGS
Codec ID/Info               : Picture based subtitle format used on BDs/HD-DVDs
Duration                    : 1 h 43 min
Bit rate                    : 34.7 kb/s
Count of elements           : 2746
Stream size                 : 25.8 MiB (0%)
Title                       : Latin American
Language                    : Spanish
Default                     : No
Forced                      : No

Text #11
ID                          : 14
Format                      : PGS
Muxing mode                 : zlib
Codec ID                    : S_HDMV/PGS
Codec ID/Info               : Picture based subtitle format used on BDs/HD-DVDs
Duration                    : 1 h 48 min
Bit rate                    : 23.8 kb/s
Count of elements           : 2404
Stream size                 : 18.5 MiB (0%)
Language                    : Swedish
Default                     : No
Forced                      : No

Text #12
ID                          : 15
Format                      : PGS
Muxing mode                 : zlib
Codec ID                    : S_HDMV/PGS
Codec ID/Info               : Picture based subtitle format used on BDs/HD-DVDs
Duration                    : 1 h 49 min
Bit rate                    : 80.2 kb/s
Count of elements           : 4215
Stream size                 : 62.6 MiB (1%)
Title                       : Commentary
Language                    : English
Default                     : No
Forced                      : No

Text #13
ID                          : 16
Format                      : PGS
Muxing mode                 : zlib
Codec ID                    : S_HDMV/PGS
Codec ID/Info               : Picture based subtitle format used on BDs/HD-DVDs
Duration                    : 1 h 49 min
Bit rate                    : 68.1 kb/s
Count of elements           : 4217
Stream size                 : 53.2 MiB (1%)
Title                       : Commentary
Language                    : French
Default                     : No
Forced                      : No

Text #14
ID                          : 17
Format                      : PGS
Muxing mode                 : zlib
Codec ID                    : S_HDMV/PGS
Codec ID/Info               : Picture based subtitle format used on BDs/HD-DVDs
Duration                    : 1 h 49 min
Bit rate                    : 47.4 kb/s
Count of elements           : 2886
Stream size                 : 37.0 MiB (0%)
Title                       : Commentary
Language                    : Japanese
Default                     : No
Forced                      : No

Text #15
ID                          : 18
Format                      : PGS
Muxing mode                 : zlib
Codec ID                    : S_HDMV/PGS
Codec ID/Info               : Picture based subtitle format used on BDs/HD-DVDs
Duration                    : 1 h 49 min
Bit rate                    : 69.6 kb/s
Count of elements           : 3467
Stream size                 : 54.3 MiB (1%)
Title                       : Commentary (Brazilian)
Language                    : Portuguese
Default                     : No
Forced                      : No

Text #16
ID                          : 19
Format                      : PGS
Muxing mode                 : zlib
Codec ID                    : S_HDMV/PGS
Codec ID/Info               : Picture based subtitle format used on BDs/HD-DVDs
Duration                    : 1 h 49 min
Bit rate                    : 72.3 kb/s
Count of elements           : 4121
Stream size                 : 56.5 MiB (1%)
Title                       : Commentary (Latin American)
Language                    : Spanish
Default                     : No
Forced                      : No

Menu
00:00:00.000                : :Flight Deck
00:02:45.290                : :Bogies
00:12:50.352                : :The Elite
00:19:08.689                : :Target Rich Environment
00:25:45.418                : :Callsign: Charlie
00:29:31.436                : :Dogfighting
00:39:12.391                : :I Don't Date Students
00:48:04.464                : :Falling
00:55:28.033                : :The Need for Speed
01:01:32.772                : :Take Me to Bed
01:04:04.507                : :Flameout
01:13:42.960                : :Keep Sending Him Up
01:21:14.828                : :No Disgrace
01:27:09.891                : :MiG's Dead Ahead
01:34:23.991                : :Wingman
01:42:03.784                : :Choice of Duty

Source Information
General
Unique ID                   : 317895538848791612930080669406872159580 (0xEF287428ABF240A6D29AF721B3A3455C)
Complete name               : Top.Gun.1986.1080p.BluRay.Remux.AVC.Atmos-PmP.mkv
Format                      : Matroska
Format version              : Version 4
File size                   : 26.5 GiB
Duration                    : 1 h 49 min
Overall bit rate mode       : Variable
Overall bit rate            : 34.7 Mb/s
Encoded date                : UTC 2020-05-19 05:14:32
Writing application         : mkvmerge v45.0.0 ('Heaven in Pennies') 64-bit
Writing library             : libebml v1.3.10 + libmatroska v1.5.2

Video
ID                          : 1
Format                      : AVC
Format/Info                 : Advanced Video Codec
Format profile              : [email protected]
Format settings             : CABAC / 4 Ref Frames
Format settings, CABAC      : Yes
Format settings, Reference  : 4 frames
Codec ID                    : V_MPEG4/ISO/AVC
Duration                    : 1 h 49 min
Bit rate mode               : Variable
Bit rate                    : 28.6 Mb/s
Maximum bit rate            : 31.8 Mb/s
Width                       : 1 920 pixels
Height                      : 1 080 pixels
Display aspect ratio        : 16:9
Frame rate mode             : Constant
Frame rate                  : 23.976 (24000/1001) FPS
Color space                 : YUV
Chroma subsampling          : 4:2:0
Bit depth                   : 8 bits
Scan type                   : Progressive
Bits/(Pixel*Frame)          : 0.575
Stream size                 : 21.9 GiB (83%)
Title                       : MPEG-4 AVC Video / 28705 kbps / 1080p / 23.976 fps / 16:9 / High Profile 4.1
Language                    : English
Default                     : Yes
Forced                      : No

Audio #1
ID                          : 2
Format                      : MLP FBA 16-ch
Format/Info                 : Meridian Lossless Packing FBA with 16-channel presentation
Commercial name             : Dolby TrueHD with Dolby Atmos
Codec ID                    : A_TRUEHD
Duration                    : 1 h 49 min
Bit rate mode               : Variable
Bit rate                    : 4 476 kb/s
Maximum bit rate            : 8 049 kb/s
Channel(s)                  : 8 channels
Channel layout              : L R C LFE Ls Rs Lb Rb
Sampling rate               : 48.0 kHz
Frame rate                  : 1 200.000 FPS (40 SPF)
Compression mode            : Lossless
Stream size                 : 3.42 GiB (13%)
Language                    : English
Default                     : Yes
Forced                      : No
Number of dynamic objects   : 11
Bed channel count           : 1 channel
Bed channel configuration   : LFE

Audio #2
ID                          : 3
Format                      : AC-3
Format/Info                 : Audio Coding 3
Commercial name             : Dolby Digital
Codec ID                    : A_AC3
Duration                    : 1 h 49 min
Bit rate mode               : Constant
Bit rate                    : 640 kb/s
Channel(s)                  : 6 channels
Channel layout              : L R C LFE Ls Rs
Sampling rate               : 48.0 kHz
Frame rate                  : 31.250 FPS (1536 SPF)
Compression mode            : Lossy
Stream size                 : 501 MiB (2%)
Title                       : Compatibility Track / Dolby Digital Audio / 5.1-EX / 48 kHz / 640 kbps
Language                    : English
Service kind                : Complete Main
Default                     : No
Forced                      : No

Audio #3
ID                          : 4
Format                      : AC-3
Format/Info                 : Audio Coding 3
Commercial name             : Dolby Digital
Codec ID                    : A_AC3
Duration                    : 1 h 49 min
Bit rate mode               : Constant
Bit rate                    : 224 kb/s
Channel(s)                  : 2 channels
Channel layout              : L R
Sampling rate               : 48.0 kHz
Frame rate                  : 31.250 FPS (1536 SPF)
Compression mode            : Lossy
Stream size                 : 175 MiB (1%)
Title                       : Commentary by producer Jerry Bruckheimer, director Tony Scott, co-screenwriter Jack Epps Jr. and Naval Experts
Language                    : English
Service kind                : Complete Main
Default                     : No
Forced                      : No

Text #1
ID                          : 5
Format                      : PGS
Codec ID                    : S_HDMV/PGS
Codec ID/Info               : Picture based subtitle format used on BDs/HD-DVDs
Duration                    : 1 h 40 min
Bit rate                    : 38.7 kb/s
Count of elements           : 2782
Stream size                 : 27.8 MiB (0%)
Language                    : English
Default                     : No
Forced                      : No

Text #2
ID                          : 6
Format                      : PGS
Codec ID                    : S_HDMV/PGS
Codec ID/Info               : Picture based subtitle format used on BDs/HD-DVDs
Duration                    : 1 h 42 min
Bit rate                    : 40.5 kb/s
Count of elements           : 2998
Stream size                 : 29.8 MiB (0%)
Title                       : SDH
Language                    : English
Default                     : No
Forced                      : No

Text #3
ID                          : 7
Format                      : PGS
Codec ID                    : S_HDMV/PGS
Codec ID/Info               : Picture based subtitle format used on BDs/HD-DVDs
Duration                    : 1 h 48 min
Bit rate                    : 24.0 kb/s
Count of elements           : 2426
Stream size                 : 18.7 MiB (0%)
Language                    : Danish
Default                     : No
Forced                      : No

Text #4
ID                          : 8
Format                      : PGS
Codec ID                    : S_HDMV/PGS
Codec ID/Info               : Picture based subtitle format used on BDs/HD-DVDs
Duration                    : 1 h 48 min
Bit rate                    : 26.1 kb/s
Count of elements           : 2178
Stream size                 : 20.3 MiB (0%)
Language                    : Dutch
Default                     : No
Forced                      : No

Text #5
ID                          : 9
Format                      : PGS
Codec ID                    : S_HDMV/PGS
Codec ID/Info               : Picture based subtitle format used on BDs/HD-DVDs
Duration                    : 1 h 48 min
Bit rate                    : 26.8 kb/s
Count of elements           : 2230
Stream size                 : 20.8 MiB (0%)
Language                    : Finnish
Default                     : No
Forced                      : No

Text #6
ID                          : 10
Format                      : PGS
Codec ID                    : S_HDMV/PGS
Codec ID/Info               : Picture based subtitle format used on BDs/HD-DVDs
Duration                    : 1 h 48 min
Bit rate                    : 27.3 kb/s
Count of elements           : 2490
Stream size                 : 21.2 MiB (0%)
Language                    : French
Default                     : No
Forced                      : No

Text #7
ID                          : 11
Format                      : PGS
Codec ID                    : S_HDMV/PGS
Codec ID/Info               : Picture based subtitle format used on BDs/HD-DVDs
Duration                    : 1 h 43 min
Bit rate                    : 18.9 kb/s
Count of elements           : 1898
Stream size                 : 14.0 MiB (0%)
Language                    : Japanese
Default                     : No
Forced                      : No

Text #8
ID                          : 12
Format                      : PGS
Codec ID                    : S_HDMV/PGS
Codec ID/Info               : Picture based subtitle format used on BDs/HD-DVDs
Duration                    : 1 h 48 min
Bit rate                    : 27.8 kb/s
Count of elements           : 2508
Stream size                 : 21.6 MiB (0%)
Language                    : Norwegian
Default                     : No
Forced                      : No

Text #9
ID                          : 13
Format                      : PGS
Codec ID                    : S_HDMV/PGS
Codec ID/Info               : Picture based subtitle format used on BDs/HD-DVDs
Duration                    : 1 h 48 min
Bit rate                    : 31.0 kb/s
Count of elements           : 2418
Stream size                 : 24.1 MiB (0%)
Title                       : Brazilian
Language                    : Portuguese
Default                     : No
Forced                      : No

Text #10
ID                          : 14
Format                      : PGS
Codec ID                    : S_HDMV/PGS
Codec ID/Info               : Picture based subtitle format used on BDs/HD-DVDs
Duration                    : 1 h 43 min
Bit rate                    : 34.7 kb/s
Count of elements           : 2746
Stream size                 : 25.8 MiB (0%)
Title                       : Latin American
Language                    : Spanish
Default                     : No
Forced                      : No

Text #11
ID                          : 15
Format                      : PGS
Codec ID                    : S_HDMV/PGS
Codec ID/Info               : Picture based subtitle format used on BDs/HD-DVDs
Duration                    : 1 h 48 min
Bit rate                    : 23.8 kb/s
Count of elements           : 2404
Stream size                 : 18.5 MiB (0%)
Language                    : Swedish
Default                     : No
Forced                      : No

Text #12
ID                          : 16
Format                      : PGS
Codec ID                    : S_HDMV/PGS
Codec ID/Info               : Picture based subtitle format used on BDs/HD-DVDs
Duration                    : 1 h 49 min
Bit rate                    : 80.2 kb/s
Count of elements           : 4215
Stream size                 : 62.6 MiB (0%)
Title                       : Commentary
Language                    : English
Default                     : No
Forced                      : No

Text #13
ID                          : 17
Format                      : PGS
Codec ID                    : S_HDMV/PGS
Codec ID/Info               : Picture based subtitle format used on BDs/HD-DVDs
Duration                    : 1 h 49 min
Bit rate                    : 68.1 kb/s
Count of elements           : 4217
Stream size                 : 53.2 MiB (0%)
Title                       : Commentary
Language                    : French
Default                     : No
Forced                      : No

Text #14
ID                          : 18
Format                      : PGS
Codec ID                    : S_HDMV/PGS
Codec ID/Info               : Picture based subtitle format used on BDs/HD-DVDs
Duration                    : 1 h 49 min
Bit rate                    : 47.4 kb/s
Count of elements           : 2886
Stream size                 : 37.0 MiB (0%)
Title                       : Commentary
Language                    : Japanese
Default                     : No
Forced                      : No

Text #15
ID                          : 19
Format                      : PGS
Codec ID                    : S_HDMV/PGS
Codec ID/Info               : Picture based subtitle format used on BDs/HD-DVDs
Duration                    : 1 h 49 min
Bit rate                    : 69.6 kb/s
Count of elements           : 3467
Stream size                 : 54.3 MiB (0%)
Title                       : Commentary (Brazilian)
Language                    : Portuguese
Default                     : No
Forced                      : No

Text #16
ID                          : 20
Format                      : PGS
Codec ID                    : S_HDMV/PGS
Codec ID/Info               : Picture based subtitle format used on BDs/HD-DVDs
Duration                    : 1 h 49 min
Bit rate                    : 72.3 kb/s
Count of elements           : 4121
Stream size                 : 56.5 MiB (0%)
Title                       : Commentary (Latin American)
Language                    : Spanish
Default                     : No
Forced                      : No

Menu
00:00:00.000                : en:Flight Deck
00:02:45.290                : en:Bogies
00:12:50.352                : en:The Elite
00:19:08.689                : en:Target Rich Environment
00:25:45.418                : en:Callsign: Charlie
00:29:31.436                : en:Dogfighting
00:39:12.391                : en:I Don't Date Students
00:48:04.464                : en:Falling
00:55:28.033                : en:The Need for Speed
01:01:32.772                : en:Take Me to Bed
01:04:04.507                : en:Flameout
01:13:42.960                : en:Keep Sending Him Up
01:21:14.828                : en:No Disgrace
01:27:09.891                : en:MiG's Dead Ahead
01:34:23.991                : en:Wingman
01:42:03.784                : en:Choice of Duty

Hello everyone,
We are TAoE, a small team of passionate encoders who love encoding. We try our best to provide you with high quality releases.

Requests for movies and shows are welcome.
We have a form for encode requests which can be found here
Encode requests form
submit your request and it will be added to our encoding request list
You can view our encoding request list here
Encode requests list


When or if we encode it will depend on if we can obtain a good source to encode with and
if one of the TAoE encoders chooses to encode it. Unfortunately we are not able to encode everything,
new members are welcome as that helps us encode more content!

If you would like to join TAoE submit your request here!
TAoE member applications form





.........................................................................................................................................

Category:Movies > HEVC/x265
Lang:English  English
Total Size:9.67 GB
Info Hash:f7acc9269fecdaec4226bf068a63119041f5a4ba
Added By:Goki
Date Added:23-05-2020 08:27:52

Files

File List: 
 File Size
Top Gun (1986) RM4K (1080p BDRip x265 10bit TrueHD 7.1 Atmos - r0b0t) [TAoE].mkv9.67 GB



Comments

<< Previous      Next >>
1 - 1

[Report] Posted: 24-05-2020 at 19:18:18
saqib100


Thanks Mr. Goki, for the greatest upload, can you please upload Sean Penn movie The Gunman released in 2015 in 1080p format and in TrueHD and Atmos.
Thanks if you can honor my requested movie
.Thanks

1 - 1
<< Previous      Next >>