ita Space Force  rq.mp4 Marvels Agents of S.H.I.E.L.D. S07E01 rick and morty UFC minx Hindi 2020 Defending Jacob S01E08 0 yts the 100 s07e02 Defending Jacob  stargirl Space Force s01e04 Brazzers Best Of Brazzers Birds of Prey (and the Fantabulous Emancipation of One Harley Quinn) 2020 insecure wwe Blindspot S05E03 Space Force s01e02 Rick and Morty S04E10 Penny Dreadful City of Angels S01E06 2160p DC week Snowpiercer s01e03 Killing Eve S03E08 evo Space Force S01E01 harley quinn The Wrong Missy 2020 ethd Scoob! 2020 the 100 killing eve hindi ddr 90 Day Fiance Before The 90 Days S04E15 joker 2019 Blindspot penny dreadful devils The Hunt 2020 billions s05e05 Survive the Night 2020 Bad Boys for Life 2020 SEAL Team  Stargirl S01E03 Legends of Tomorrow Last Week Tonight The Invisible Man 2020 etmovies westworld Bloodshot 2020 etrg billions Law and Order SVU Last Week Tonight with John Oliver S07E13 Snowpiercer Hightown S01E03 Locke  The Gentlemen 2020 Space Force s01e03 hightown ettv Rick and Morty S04E09 Xxx The High Note 2020 Inheritance 2020 
Warning! Use a VPN When Downloading Torrents!
Your IP Address is 34.231.21.83. Location United States
Your Internet Provider can see when you download torrents! Hide your IP Address with a VPN
ETTV warns: You should use VPN to hide your torrenting. HIDE ME NOW
ETTV Recommended TV Shows
I.Know.This.Much.Is.True.S01E04.WEB.H264-BTX[ettv] torrent
Rick.and.Morty.S04E10.1080p.WEBRip.x264-BTX[ettv] torrent
Snowpiercer.S01E03.WEBRip.x264-BTX[ettv] torrent
Stargirl.S01E03.1080p.WEB.H264-BTX[ettv] torrent

ETTV Recommended SD
The.Hauting.Of.Molly.Bannister.2020.HDRip.XviD.AC3-EVO torrent
Trick.Or.Treat.2019.HDRip.XviD.AC3-EVO torrent
No.Apology.2020.HDRip.XviD.AC3-EVO torrent
Feral.2020.HDRip.XviD.AC3-EVO torrent

ETTV Recommended HD
Trick.Or.Treat.2019.1080p.WEB-DL.H264.AC3-EVO[EtHD] torrent
Jesus.Shows.You.The.Way.To.The.Highway.2019.1080p.WEB-DL.H264.AC3-EVO[EtHD] torrent
One.Glorious.Sunset.2020.1080p.AMZN.WEBRip.X264.DD.2.0-EVO[EtHD] torrent
Air.Force.One.1997.BRRip.1080.HEVC.HDR.Eng.DD5.1.ETRG torrent

ETTV Recommended UHD
First.reformed.2017.UHD.2160p.HDR.WebRip.DDP.5.1.HEVC-DDR.mkv torrent
Rush.2013.MULTi.UHD.2160p.HDR.DTS-HDMA.5.1.HEVC-DDR.mkv torrent
Thor.Ragnarok.2017.BDRip.2160P.UHD.HDR.Eng.TrueHD.ETRG torrent
Air.Force.One.1997.BDRip.2160.UHD.HDR.Eng.TrueHD.ETRG torrent

ETTV Recommended Cam
The Hunt 2020 HDCAM x264 AC3-ETRG torrent
The Burnt Orange Heresy 2020 720p HDCAM-C1NEM4 torrent

ETTV Recommended Foreign
Atlantis: The Lost Continent - Atlantide il continente perduto (1961).720p.H264.ita.eng.sub.eng-MIRCrew torrent
Shab 2017 Hindi 1080p Web-DL x264 AAC [TMB] torrent
Chippa.2018.1080p.NF.WEB-DL.DDP5.1.x264-Telly torrent
Chacha.Chaudhary.S01.2019.1080p.DSNP+.WEB-DL.AAC.2.0.x264-Telly torrent

Sponsored


Download Torrent "WWE Main Event 2020 05 20 1080p WEBRIP h264-WH [TJET]"

IMDB Details
Description:

N/A

Genre:

N/A

Download Torrent (Magnet)
Download Torrent (File)
Seeds: 29
Leechers: 64
Completed: 130 
Last Checked: 23-05-2020 06:18:42


Details
Title:WWE Main Event 2020 05 20 1080p WEBRIP h264-WH [TJET]
Description:
WWE Main Event 21st May 2020




General
Complete name : WWE.Main.Event.2020.05.20.1080p.WEBRIP.h264-WH.mp4
Format : MPEG-4
Format profile : Base Media
File size : 1.92 GiB
Duration : 44 min 26 s
Overall bit rate mode : Variable
Overall bit rate : 6 190 kb/s
Writing application : Lavf56.15.102

Video
Format : AVC
Duration : 44 min 26 s
Bit rate : 6 000 kb/s
Width : 1 920 pixels
Height : 1 080 pixels
Display aspect ratio : 16:9
Frame rate mode : Constant
Frame rate : 60.000 FPS
Color space : YUV
Chroma subsampling : 4:2:0
Bit depth : 8 bits
Scan type : Progressive
Bits/(Pixel*Frame) : 0.048
Stream size : 1.87 GiB (97%)

Audio
Codec ID : mp4a-40-2
Duration : 44 min 26 s
Bit rate mode : Variable
Bit rate : 165 kb/s
Maximum bit rate : 320 kb/s
Channel(s) : 2 channels
Channel layout : L R
Sampling rate : 48.0 kHz
Frame rate : 46.875 FPS (1024 SPF)
Compression mode : Lossy
Stream size : 52.6 MiB (3%)
Language : English




Category:TV > Sport
Lang:English  English
Total Size:1.92 GB
Info Hash:9d628a407161f2c28c29c58a904e75fba0133328
Added By:TEZ
Date Added:23-05-2020 06:18:42

Files

File List: 
 File Size
WWE.Main.Event.2020.05.20.1080p.WEBRIP.h264-WH.mp41.92 GB



Comments

There are currently no comments. Be the first one to write something !