Survive the Night 2020 Space Force S01E01 Marvel Week Brazzers Best Of Brazzers game of thrones  13 Reasons Why Season 4 WWE  legends of tomorrow SEAL Team Blindspot evo choked yts Alex Rider S01E01 Chicago Med Greys Anatomy baki agents of shield Americas Got Talent S15E02 Last Week Tonight snowpiercer etrg Man With a Plan S04E12 Gangs of London S01E07 killing eve  The Real Housewives of Beverly Hills S10E08 Billions S05E05 Deadliest Catch S16E08 ettv 2160p stargirl The Challenge S35E10 rq.mp4 Scoob! 2020 XXX The Hunt 2020 Space Force s01e02 Love life hindi Rick and Morty Billions westworld The Blackout Invasion Earth 2019 DCs Legends of Tomorrow S05E15 13 reasons why Rick and Morty S04E10 what we do in the shadows locke and key s01e06 minx ita what we do in the shadows S02e09 13 reasons why s04 ddr The 100 S07E03 0 the challenge dc week The 100 Jersey Shore Family Vacation S03E27 Chicago Fire hindi 2020 Marvels Agents of S.H.I.E.L.D. S07E02 etmovies Blindspot S05E04 harley quinn alex rider AEW ethd 
Warning! Use a VPN When Downloading Torrents!
Your IP Address is 34.232.62.209. Location United States
Your Internet Provider can see when you download torrents! Hide your IP Address with a VPN
ETTV warns: You should use VPN to hide your torrenting. HIDE ME NOW
ETTV Recommended TV Shows
The.100.S07E03.WEB.H264-ALiGN[ettv] torrent
Man.With.a.Plan.S04E12.720p.x265.ETRG torrent
In.the.Dark.2019.S02E08.HDTV.x264-SVA[ettv] torrent
Blindspot.S05E04.HDTV.x264-SVA[ettv] torrent

ETTV Recommended SD
Equal.Standard.2020.HDRip.XviD.AC3-EVO torrent
They.Reach.2020.BRRip.XviD.AC3-EVO torrent
Acrylic.2020.HDRip.XviD.AC3-EVO torrent
Think.Like.a.Dog.2020.BDRip.XviD.AC3-EVO torrent

ETTV Recommended HD
Becky.2020.1080p.WEB-DL.H264.AC3-EVO[EtHD] torrent
The.Deeper.You.Dig.2019.1080p.WEB-DL.H264.AC3-EVO[EtHD] torrent
The.Last.Days.of.American.Crime.2020.NF.WEB-DL.DDP2.0.x264-CMRG[EtHD] torrent
Shutter.Island.2010.BRRip.1080p.HEVC.HDR.Eng.DD5.1.ETRG torrent

ETTV Recommended UHD
Last.Flag.Flying.2017.UHD.2160p.HDR.WebRip.DDP.5.1.HEVC-DDR.mkv torrent
Suicide.Squad.Hell.to.Pay.2018.MULTi.UHD.BluRay.2160p.HDR.DTS-HDMA.5.1.HEVC-DDR.mkv torrent
The.Shining.1980.BDRip.2160p.UHD.HDR.Eng.DTS-HD.MA.ETRG torrent
Shutter.Island.2010.BDRip.2160p.UHD.HDR.Eng.DTS-HD.MA.ETRG torrent

ETTV Recommended Cam
The Hunt 2020 HDCAM x264 AC3-ETRG torrent
The Burnt Orange Heresy 2020 720p HDCAM-C1NEM4 torrent

ETTV Recommended Foreign
Chintu.Ka.Birthday.2020.1080p.ZEE5.WEB-DL.AAC.2.0.H.264-Telly torrent
Devdas (2002) Hindi (2160p Upscaled WEBRip x265 HEVC 10bit DDP 5.1 ESub) - [Musafirboy] torrent
Choked.Paisa.Bolta.Hai.2020.1080p.NF.WEB-DL.DDP5.1.x264-Telly torrent
Aani Kay Hava 2019 Season 1 Marathi 1080p Web-DL x264 AAC [TMB] torrent
Guardiani dei mondi (2018) [BluRay Rip 1080p ITA-RUS DTS-AC3 SUBS] [M@HD] torrent
Motel Acacia (2019) HDRip 720p [Hindi-Dub] Dual-Audio x264 - 1XCinema torrent

Sponsored


Download Torrent "Greed (2019) (1080p BDRip x265 10bit EAC3 5.1 - ArcX)[TAoE].mkv"

IMDB Details
Description:

Satire about the world of the super-rich.

Genre:

Comedy, Drama

Download Torrent (Magnet)
Download Torrent (File)
Seeds: 128
Leechers: 29
Completed: 372 
Last Checked: 23-05-2020 01:45:59


Details
Title:Greed (2019) (1080p BDRip x265 10bit EAC3 5.1 - ArcX)[TAoE].mkv
Description:

Media Information

General
Unique ID                                : 226264901130306380689732942478091130549 (0xAA3908EB9B39136E6A1955646B0E96B5)
Complete name                            : Greed (2019) (1080p BDRip x265 10bit EAC3 5.1 - ArcX)[TAoE].mkv
Format                                   : Matroska
Format version                           : Version 4
File size                                : 2.20 GiB
Duration                                 : 1 h 44 min
Overall bit rate                         : 3 022 kb/s
Movie name                               : Greed (2019) (1080p BDRip x265 10bit EAC3 5.1 - ArcX)[TAoE].mkv
Writing application                      : Lavf58.29.100
Writing library                          : Lavf58.29.100
ErrorDetectionType                       : Per level 1
IMDB                                     : tt8972256
TMDB                                     : movie/567598

Video
ID                                       : 1
Format                                   : HEVC
Format/Info                              : High Efficiency Video Coding
Format profile                           : Main [email protected]@Main
Codec ID                                 : V_MPEGH/ISO/HEVC
Duration                                 : 1 h 44 min
Bit rate                                 : 2 436 kb/s
Width                                    : 1 920 pixels
Height                                   : 1 080 pixels
Display aspect ratio                     : 16:9
Frame rate mode                          : Variable
Frame rate                               : 23.976 FPS
Color space                              : YUV
Chroma subsampling                       : 4:2:0
Bit depth                                : 10 bits
Bits/(Pixel*Frame)                       : 0.049
Stream size                              : 1.78 GiB (81%)
Title                                    : Encoded by ArcX for TAoE
Writing library                          : x265 3.2.1+1-b5c86a64bbbe:[Linux][GCC 9.2.1][64 bit] 10bit
Encoding settings                        : cpuid=1111039 / frame-threads=2 / wpp / no-pmode / no-pme / no-psnr / no-ssim / log-level=2 / input-csp=1 / input-res=1920x1080 / interlace=0 / total-frames=0 / level-idc=0 / high-tier=1 / uhd-bd=0 / ref=4 / no-allow-non-conformance / no-repeat-headers / annexb / no-aud / no-hrd / info / hash=0 / no-temporal-layers / open-gop / min-keyint=23 / keyint=250 / gop-lookahead=0 / bframes=8 / b-adapt=2 / b-pyramid / bframe-bias=0 / rc-lookahead=80 / lookahead-slices=4 / scenecut=40 / radl=0 / no-splice / no-intra-refresh / ctu=64 / min-cu-size=8 / no-rect / no-amp / max-tu-size=32 / tu-inter-depth=1 / tu-intra-depth=1 / limit-tu=0 / rdoq-level=2 / dynamic-rd=0.00 / no-ssim-rd / signhide / no-tskip / nr-intra=0 / nr-inter=0 / no-constrained-intra / no-strong-intra-smoothing / max-merge=3 / limit-refs=3 / limit-modes / me=3 / subme=5 / merange=57 / temporal-mvp / no-hme / weightp / no-weightb / no-analyze-src-pics / deblock=0:0 / sao / no-sao-non-deblock / rd=4 / selective-sao=4 / no-early-skip / rskip / no-fast-intra / no-tskip-fast / no-cu-lossless / no-b-intra / no-splitrd-skip / rdpenalty=0 / psy-rd=1.30 / psy-rdoq=2.00 / no-rd-refine / no-lossless / cbqpoffs=0 / crqpoffs=0 / rc=crf / crf=20.0 / qcomp=0.60 / qpstep=4 / stats-write=0 / stats-read=0 / ipratio=1.40 / pbratio=1.30 / aq-mode=4 / aq-strength=1.10 / cutree / zone-count=0 / no-strict-cbr / qg-size=32 / no-rc-grain / qpmax=69 / qpmin=0 / no-const-vbv / sar=1 / overscan=0 / videoformat=5 / range=0 / colorprim=2 / transfer=2 / colormatrix=2 / chromaloc=0 / display-window=0 / cll=0,0 / min-luma=0 / max-luma=1023 / log2-max-poc-lsb=8 / vui-timing-info / vui-hrd-info / slices=1 / no-opt-qp-pps / no-opt-ref-list-length-pps / no-multi-pass-opt-rps / scenecut-bias=0.05 / no-opt-cu-delta-qp / no-aq-motion / no-hdr / no-hdr-opt / no-dhdr10-opt / no-idr-recovery-sei / analysis-reuse-level=5 / scale-factor=0 / refine-intra=0 / refine-inter=0 / refine-mv=1 / refine-ctu-distortion=0 / no-limit-sao / ctu-info=0 / no-lowpass-dct / refine-analysis-type=0 / copy-pic=1 / max-ausize-factor=1.0 / no-dynamic-refine / no-single-sei / no-hevc-aq / no-svt / no-field / qp-adaptation-range=1.00
Language                                 : English
Default                                  : Yes
Forced                                   : No
Color range                              : Limited

Audio
ID                                       : 2
Format                                   : E-AC-3
Format/Info                              : Enhanced AC-3
Commercial name                          : Dolby Digital Plus
Codec ID                                 : A_EAC3
Duration                                 : 1 h 44 min
Bit rate mode                            : Constant
Bit rate                                 : 448 kb/s
Channel(s)                               : 6 channels
Channel layout                           : L R C LFE Ls Rs
Sampling rate                            : 48.0 kHz
Frame rate                               : 31.250 FPS (1536 SPF)
Bit depth                                : 24 bits
Compression mode                         : Lossy
Stream size                              : 334 MiB (15%)
Writing library                          : Lavc58.54.100 eac3
Language                                 : English
Service kind                             : Complete Main
Default                                  : Yes
Forced                                   : No

Text #1
ID                                       : 3
Format                                   : PGS
Codec ID                                 : S_HDMV/PGS
Codec ID/Info                            : Picture based subtitle format used on BDs/HD-DVDs
Duration                                 : 14 min 12 s
Bit rate                                 : 735 b/s
Count of elements                        : 14
Stream size                              : 76.6 KiB (0%)
Title                                    : Forced
Language                                 : English
Default                                  : No
Forced                                   : Yes

Text #2
ID                                       : 4
Format                                   : PGS
Codec ID                                 : S_HDMV/PGS
Codec ID/Info                            : Picture based subtitle format used on BDs/HD-DVDs
Duration                                 : 1 h 36 min
Bit rate                                 : 49.7 kb/s
Count of elements                        : 3310
Stream size                              : 34.2 MiB (2%)
Language                                 : English
Default                                  : No
Forced                                   : No

Text #3
ID                                       : 5
Format                                   : PGS
Codec ID                                 : S_HDMV/PGS
Codec ID/Info                            : Picture based subtitle format used on BDs/HD-DVDs
Duration                                 : 1 h 39 min
Bit rate                                 : 52.9 kb/s
Count of elements                        : 3676
Stream size                              : 37.7 MiB (2%)
Title                                    : SDH
Language                                 : English
Default                                  : No
Forced                                   : No

Text #4
ID                                       : 6
Format                                   : PGS
Codec ID                                 : S_HDMV/PGS
Codec ID/Info                            : Picture based subtitle format used on BDs/HD-DVDs
Duration                                 : 1 h 43 min
Bit rate                                 : 39.8 kb/s
Count of elements                        : 3306
Stream size                              : 29.5 MiB (1%)
Language                                 : French
Default                                  : No
Forced                                   : No

Menu
00:00:00.000                             : :Chapter 1
00:10:04.771                             : :Chapter 2
00:20:01.992                             : :Chapter 3
00:30:08.265                             : :Chapter 4
00:40:03.192                             : :Chapter 5
00:50:06.921                             : :Chapter 6
01:00:09.147                             : :Chapter 7
01:10:05.118                             : :Chapter 8
01:20:04.883                             : :Chapter 9
01:30:05.859                             : :Chapter 10
01:37:41.022                             : :Chapter 11
01:44:09.243                             : :Chapter 12

Source Information

General
Unique ID                                : 304644293794985946677785041785774817150 (0xE5305B55F9F900DC80D6C61DE6A63F7E)
Complete name                            : Greed.2019.1080p.BluRay.REMUX.AVC.DTS-HD.MA.5.1-EPSiLON.mkv
Format                                   : Matroska
Format version                           : Version 4
File size                                : 15.6 GiB
Duration                                 : 1 h 44 min
Overall bit rate mode                    : Variable
Overall bit rate                         : 21.3 Mb/s
Movie name                               : Greed (2019)
Encoded date                             : UTC 2020-05-15 02:45:17
Writing application                      : mkvmerge v46.0.0 ('No Deeper Escape') 64-bit
Writing library                          : libebml v1.3.10 + libmatroska v1.5.2
IMDB                                     : tt8972256
TMDB                                     : movie/567598

Video
ID                                       : 1
Format                                   : AVC
Format/Info                              : Advanced Video Codec
Format profile                           : [email protected]
Format settings                          : CABAC / 2 Ref Frames
Format settings, CABAC                   : Yes
Format settings, Reference frames        : 2 frames
Format settings, GOP                     : M=1, N=5
Codec ID                                 : V_MPEG4/ISO/AVC
Duration                                 : 1 h 44 min
Bit rate mode                            : Variable
Bit rate                                 : 17.2 Mb/s
Maximum bit rate                         : 38.2 Mb/s
Width                                    : 1 920 pixels
Height                                   : 1 080 pixels
Display aspect ratio                     : 16:9
Frame rate mode                          : Constant
Frame rate                               : 23.976 (24000/1001) FPS
Color space                              : YUV
Chroma subsampling                       : 4:2:0
Bit depth                                : 8 bits
Scan type                                : Progressive
Bits/(Pixel*Frame)                       : 0.346
Stream size                              : 12.5 GiB (81%)
Title                                    : MPEG-4 AVC Video / 17179 kbps / 1080p / 23.976 fps / 16:9 / High Profile 4.1
Language                                 : English
Default                                  : Yes
Forced                                   : No

Audio
ID                                       : 2
Format                                   : DTS XLL
Format/Info                              : Digital Theater Systems
Commercial name                          : DTS-HD Master Audio
Codec ID                                 : A_DTS
Duration                                 : 1 h 44 min
Bit rate mode                            : Variable
Bit rate                                 : 4 027 kb/s
Channel(s)                               : 6 channels
Channel layout                           : C L R Ls Rs LFE
Sampling rate                            : 48.0 kHz
Frame rate                               : 93.750 FPS (512 SPF)
Bit depth                                : 24 bits
Compression mode                         : Lossless
Stream size                              : 2.93 GiB (19%)
Title                                    : DTS-HD Master Audio / 5.1 / 48 kHz / 4019 kbps / 24-bit
Language                                 : English
Default                                  : Yes
Forced                                   : No

Text #1
ID                                       : 3
Format                                   : PGS
Codec ID                                 : S_HDMV/PGS
Codec ID/Info                            : Picture based subtitle format used on BDs/HD-DVDs
Duration                                 : 14 min 12 s
Bit rate                                 : 735 b/s
Count of elements                        : 14
Stream size                              : 76.6 KiB (0%)
Title                                    : Forced
Language                                 : English
Default                                  : Yes
Forced                                   : Yes

Text #2
ID                                       : 4
Format                                   : PGS
Codec ID                                 : S_HDMV/PGS
Codec ID/Info                            : Picture based subtitle format used on BDs/HD-DVDs
Duration                                 : 1 h 36 min
Bit rate                                 : 49.7 kb/s
Count of elements                        : 3310
Stream size                              : 34.2 MiB (0%)
Language                                 : English
Default                                  : No
Forced                                   : No

Text #3
ID                                       : 5
Format                                   : PGS
Codec ID                                 : S_HDMV/PGS
Codec ID/Info                            : Picture based subtitle format used on BDs/HD-DVDs
Duration                                 : 1 h 39 min
Bit rate                                 : 52.9 kb/s
Count of elements                        : 3676
Stream size                              : 37.7 MiB (0%)
Title                                    : SDH
Language                                 : English
Default                                  : No
Forced                                   : No

Text #4
ID                                       : 6
Format                                   : PGS
Codec ID                                 : S_HDMV/PGS
Codec ID/Info                            : Picture based subtitle format used on BDs/HD-DVDs
Duration                                 : 1 h 43 min
Bit rate                                 : 39.8 kb/s
Count of elements                        : 3306
Stream size                              : 29.5 MiB (0%)
Language                                 : French
Default                                  : No
Forced                                   : No

Menu
00:00:00.000                             : en:Chapter 1
00:10:04.771                             : en:Chapter 2
00:20:01.992                             : en:Chapter 3
00:30:08.265                             : en:Chapter 4
00:40:03.192                             : en:Chapter 5
00:50:06.921                             : en:Chapter 6
01:00:09.147                             : en:Chapter 7
01:10:05.118                             : en:Chapter 8
01:20:04.883                             : en:Chapter 9
01:30:05.859                             : en:Chapter 10
01:37:41.022                             : en:Chapter 11
01:44:09.243                             : en:Chapter 12

Hello everyone,
We are TAoE, a small team of passionate encoders who love encoding. We try our best to provide you with high quality releases.
If you would like to join the team just drop us a comment or send us a message.




.........................................................................................................................................

Category:Movies > HEVC/x265
Lang:English  English
Total Size:2.20 GB
Info Hash:55395e261ced1052dfb7157c187aa581c76d3d41
Added By:Goki
Date Added:23-05-2020 01:45:54

Files

File List: 
 File Size
Greed (2019) (1080p BDRip x265 10bit EAC3 5.1 - ArcX)[TAoE].mkv2.20 GB



Comments

There are currently no comments. Be the first one to write something !