Survive the Night 2020 Space Force S01E01 Marvel Week Brazzers Best Of Brazzers game of thrones  13 Reasons Why Season 4 WWE  legends of tomorrow SEAL Team Blindspot evo choked yts Alex Rider S01E01 Chicago Med Greys Anatomy baki agents of shield Americas Got Talent S15E02 Last Week Tonight snowpiercer etrg Man With a Plan S04E12 Gangs of London S01E07 killing eve  The Real Housewives of Beverly Hills S10E08 Billions S05E05 Deadliest Catch S16E08 ettv 2160p stargirl The Challenge S35E10 rq.mp4 Scoob! 2020 XXX The Hunt 2020 Space Force s01e02 Love life hindi Rick and Morty Billions westworld The Blackout Invasion Earth 2019 DCs Legends of Tomorrow S05E15 13 reasons why Rick and Morty S04E10 what we do in the shadows locke and key s01e06 minx ita what we do in the shadows S02e09 13 reasons why s04 ddr The 100 S07E03 0 the challenge dc week The 100 Jersey Shore Family Vacation S03E27 Chicago Fire hindi 2020 Marvels Agents of S.H.I.E.L.D. S07E02 etmovies Blindspot S05E04 harley quinn alex rider AEW ethd 
Warning! Use a VPN When Downloading Torrents!
Your IP Address is 34.204.176.125. Location United States
Your Internet Provider can see when you download torrents! Hide your IP Address with a VPN
ETTV warns: You should use VPN to hide your torrenting. HIDE ME NOW
ETTV Recommended TV Shows
The.100.S07E03.WEB.H264-ALiGN[ettv] torrent
Man.With.a.Plan.S04E12.720p.x265.ETRG torrent
In.the.Dark.2019.S02E08.HDTV.x264-SVA[ettv] torrent
Blindspot.S05E04.HDTV.x264-SVA[ettv] torrent

ETTV Recommended SD
Equal.Standard.2020.HDRip.XviD.AC3-EVO torrent
They.Reach.2020.BRRip.XviD.AC3-EVO torrent
Acrylic.2020.HDRip.XviD.AC3-EVO torrent
Think.Like.a.Dog.2020.BDRip.XviD.AC3-EVO torrent

ETTV Recommended HD
Becky.2020.1080p.WEB-DL.H264.AC3-EVO[EtHD] torrent
The.Deeper.You.Dig.2019.1080p.WEB-DL.H264.AC3-EVO[EtHD] torrent
The.Last.Days.of.American.Crime.2020.NF.WEB-DL.DDP2.0.x264-CMRG[EtHD] torrent
Shutter.Island.2010.BRRip.1080p.HEVC.HDR.Eng.DD5.1.ETRG torrent

ETTV Recommended UHD
Last.Flag.Flying.2017.UHD.2160p.HDR.WebRip.DDP.5.1.HEVC-DDR.mkv torrent
Suicide.Squad.Hell.to.Pay.2018.MULTi.UHD.BluRay.2160p.HDR.DTS-HDMA.5.1.HEVC-DDR.mkv torrent
The.Shining.1980.BDRip.2160p.UHD.HDR.Eng.DTS-HD.MA.ETRG torrent
Shutter.Island.2010.BDRip.2160p.UHD.HDR.Eng.DTS-HD.MA.ETRG torrent

ETTV Recommended Cam
The Hunt 2020 HDCAM x264 AC3-ETRG torrent
The Burnt Orange Heresy 2020 720p HDCAM-C1NEM4 torrent

ETTV Recommended Foreign
Chintu.Ka.Birthday.2020.1080p.ZEE5.WEB-DL.AAC.2.0.H.264-Telly torrent
Devdas (2002) Hindi (2160p Upscaled WEBRip x265 HEVC 10bit DDP 5.1 ESub) - [Musafirboy] torrent
Choked.Paisa.Bolta.Hai.2020.1080p.NF.WEB-DL.DDP5.1.x264-Telly torrent
Aani Kay Hava 2019 Season 1 Marathi 1080p Web-DL x264 AAC [TMB] torrent
Guardiani dei mondi (2018) [BluRay Rip 1080p ITA-RUS DTS-AC3 SUBS] [M@HD] torrent
Motel Acacia (2019) HDRip 720p [Hindi-Dub] Dual-Audio x264 - 1XCinema torrent

Sponsored


Download Torrent "Downhill.2020.MULTi-3.[En.Fr.Sp].1080p.BluRay.HEVC.DTS-HD.MA.5.1-DDR.mkv"

IMDB Details
Description:

Barely escaping an avalanche during a family ski vacation in the Alps, a married couple is thrown into disarray as they are forced to reevaluate their lives and how they feel about each other.

Genre:

Comedy, Drama

Download Torrent (Magnet)
Download Torrent (File)
Seeds: 21
Leechers: 34
Completed: 96 
Last Checked: 23-05-2020 00:34:11


Details
Title:Downhill.2020.MULTi-3.[En.Fr.Sp].1080p.BluRay.HEVC.DTS-HD.MA.5.1-DDR.mkv
Description:









Format                                   : Matroska
Format version                           : Version 4
File size                                : 6.36 GiB
Duration                                 : 1 h 26 min
Overall bit rate mode                    : Variable
Overall bit rate                         : 10.6 Mb/s
Encoded date                             : UTC 2020-05-22 14:40:12
Writing application                      : mkvmerge v45.0.0 ('Heaven in Pennies') 64-bit
Writing library                          : libebml v1.3.10 + libmatroska v1.5.2

Video
ID                                       : 1
Format                                   : HEVC
Format/Info                              : High Efficiency Video Coding
Format profile                           : Main [email protected]@High
Codec ID                                 : V_MPEGH/ISO/HEVC
Duration                                 : 1 h 26 min
Bit rate                                 : 5 879 kb/s
Width                                    : 1 920 pixels
Height                                   : 800 pixels
Display aspect ratio                     : 2.40:1
Frame rate mode                          : Constant
Frame rate                               : 23.976 (24000/1001) FPS
Color space                              : YUV
Chroma subsampling                       : 4:2:0
Bit depth                                : 10 bits
Bits/(Pixel*Frame)                       : 0.160
Stream size                              : 3.54 GiB (56%)
Language                                 : English
Default                                  : Yes
Forced                                   : No
Color range                              : Limited
Color primaries                          : BT.709
Transfer characteristics                 : BT.709
Matrix coefficients                      : BT.709

Audio #1
ID                                       : 2
Format                                   : DTS XLL
Format/Info                              : Digital Theater Systems
Commercial name                          : DTS-HD Master Audio
Codec ID                                 : A_DTS
Duration                                 : 1 h 26 min
Bit rate mode                            : Variable
Bit rate                                 : 3 359 kb/s
Channel(s)                               : 6 channels
Channel layout                           : C L R Ls Rs LFE
Sampling rate                            : 48.0 kHz
Frame rate                               : 93.750 FPS (512 SPF)
Bit depth                                : 24 bits
Compression mode                         : Lossless
Stream size                              : 2.02 GiB (32%)
Language                                 : English
Default                                  : Yes
Forced                                   : No

Audio #2
ID                                       : 3
Format                                   : AC-3
Format/Info                              : Audio Coding 3
Commercial name                          : Dolby Digital
Codec ID                                 : A_AC3
Duration                                 : 1 h 26 min
Bit rate mode                            : Constant
Bit rate                                 : 640 kb/s
Channel(s)                               : 6 channels
Channel layout                           : L R C LFE Ls Rs
Sampling rate                            : 48.0 kHz
Frame rate                               : 31.250 FPS (1536 SPF)
Bit depth                                : 16 bits
Compression mode                         : Lossy
Delay relative to video                  : 28 ms
Stream size                              : 395 MiB (6%)
Language                                 : French
Service kind                             : Complete Main
Default                                  : No
Forced                                   : No

Audio #3
ID                                       : 4
Format                                   : AC-3
Format/Info                              : Audio Coding 3
Commercial name                          : Dolby Digital
Codec ID                                 : A_AC3
Duration                                 : 1 h 26 min
Bit rate mode                            : Constant
Bit rate                                 : 640 kb/s
Channel(s)                               : 6 channels
Channel layout                           : L R C LFE Ls Rs
Sampling rate                            : 48.0 kHz
Frame rate                               : 31.250 FPS (1536 SPF)
Bit depth                                : 16 bits
Compression mode                         : Lossy
Delay relative to video                  : 28 ms
Stream size                              : 395 MiB (6%)
Language                                 : Spanish

Subs
En Fr Sp

MikeKhan /Desitorrents.tv
Category:Movies > HD 1080p
Lang:English  English
Total Size:6.36 GB
Info Hash:3d58c7f533ed6f0cb287d7b464db2a8968978242
Added By:DDR
Date Added:23-05-2020 00:34:05

  

Files

File List: 
 File Size
Downhill.2020.MULTi-3.[En.Fr.Sp].1080p.BluRay.HEVC.DTS-HD.MA.5.1-DDR.mkv6.36 GB



Comments

There are currently no comments. Be the first one to write something !