the 100 ethd Sonic the Hedgehog 2020 rick and morty s04e09 evo ettv 2160p betaal Scoob! 2020 batwoman the flash The Hunt 2020 insecure The Gentlemen 2020 Birds of Prey (and the Fantabulous Emancipation of One Harley Quinn) 2020 supergirl Extraction 2020 The Blackout hindi hightown Outlander  0 run Snowpiercer S01E02 The Lovebirds 2020 seal team  AEW rick and morty s04e08 legends of tomorrow westworld star wars the rise of skywalker 2019 BILLIONS Hightown S01E02 rq.mp4 etmovies EtHD ddr Stargirl S01E01 The Invisible Man 2020 penny dreadful defending jacob Survive the Night 2020 Good Witch S06E04 Rick and Morty stargirl wwe stargirl s01e02 Penny Dreadful City of Angels S01E05 what we do in the shadows Killing Eve S03E07 Defending Jacob S01E07 Capone 2020 ufc Modern Love s01e07 Live PD s04e65 Billions S05E04 Killing Eve yts Locke  Bloodshot 2020 Harley Quinn Xxx Bad Boys for Life 2020 etrg snowpiercer Blindspot Inheritance 2020 90 Day Fiance Before The 90 Days S04E14 The Wrong Missy 2020 
Warning! Use a VPN When Downloading Torrents!
Your IP Address is 3.235.172.213. Location United States
Your Internet Provider can see when you download torrents! Hide your IP Address with a VPN
ETTV warns: You should use VPN to hide your torrenting. HIDE ME NOW
ETTV Recommended TV Shows
American.Dad.S16E07.HDTV.x264-KILLERS[ettv] torrent
Almost.Paradise.S01E09.HDTV.x264-KILLERS[ettv] torrent
The.Baker.and.the.Beauty.US.S01E07.HDTV.x264-KILLERS[ettv] torrent
WWE RAW 25th May 2020 HDTV x264-TJ [TJET] torrent

ETTV Recommended SD
Jules.Of.Light.And.Dark.2019.HDRip.XviD.AC3-EVO torrent
Straight.Up.2020.HDRip.XviD.AC3-EVO torrent
The.Control.2020.HDRip.XviD.AC3-EVO torrent
Ron.Hoppers.Misfortune.2020.AMZN.HDRip.XViD.AC3-juggs torrent

ETTV Recommended HD
Straight.Up.2020.1080p.WEB-DL.H264.AC3-EVO[EtHD] torrent
The.Control.2020.1080p.WEB-DL.H264.AC3-EVO[EtHD] torrent
Adventures.Of.Rufus.The.Fantastic.Pet.2020.1080p.WEB-DL.H264.AC3-EVO[EtHD] torrent
Blade.Runner.2049.2017.BRRip.1080p.HEVC.HDR.Eng.DD5.1.ETRG torrent

ETTV Recommended UHD
War.of.the.Worlds.2005.4K.HDR.2160p.BDRip Ita Eng x265-NAHOM torrent
The Blues Brothers 1980.MULTi.UHD.BluRay.2160p.HDR.HEVC.DTS-X.7.1-DDR.mkv torrent
Blade.Runner.1982.The.Final.Cut.BDRip.2160p.UHD.HDR.Eng.TrueHD.ETRG torrent
Blade.Runner.2049.2017.BDRip.2160p.UHD.HDR.Eng.TrueHD.ETRG torrent

ETTV Recommended Cam
The Hunt 2020 HDCAM x264 AC3-ETRG torrent
The Burnt Orange Heresy 2020 720p HDCAM-C1NEM4 torrent

ETTV Recommended Foreign
Betaal.S01.2020.UHD.2160p.HDR.WEB-Rip.Atmos.5.1.HEVC-DDR torrent
The.Decline.2020.French.UHD.2160p.HDR.WEBRiP.DDP.5.1.HEVC-DDR[EtHD] torrent
Naukar.Vahuti.Da.2019.720p.AMZN.WEB-DL.DD+5.1.x264-Telly torrent
Rishtey 2002 Hindi 720p AMZN WEBRip x264 AAC 5.1 ESubs - LOKiHD - Telly torrent

Sponsored


Download Torrent "Ashfall.2019.KOREAN.MULTi-2.1080p.BluRay.HEVC.TrueHD.5.1-DDR.mkv"

IMDB Details
Description:

Stagnant since 1903, at an elevation of 2,744 m, a volcano erupts on the mythical and majestic Baekdu Mountain.

Genre:

Action, Drama, Thriller

Download Torrent (Magnet)
Download Torrent (File)
Seeds: 20
Leechers: 7
Completed: 25 
Last Checked: 23-05-2020 00:25:33


Details
Title:Ashfall.2019.KOREAN.MULTi-2.1080p.BluRay.HEVC.TrueHD.5.1-DDR.mkv
Description:








Format                                   : Matroska
Format version                           : Version 4
File size                                : 9.38 GiB
Duration                                 : 2 h 8 min
Overall bit rate mode                    : Variable
Overall bit rate                         : 10.5 Mb/s
Encoded date                             : UTC 2020-05-22 14:38:03
Writing application                      : mkvmerge v45.0.0 ('Heaven in Pennies') 64-bit
Writing library                          : libebml v1.3.10 + libmatroska v1.5.2

Video
ID                                       : 1
Format                                   : HEVC
Format/Info                              : High Efficiency Video Coding
Format profile                           : Main [email protected]@High
Codec ID                                 : V_MPEGH/ISO/HEVC
Duration                                 : 2 h 8 min
Bit rate                                 : 6 883 kb/s
Width                                    : 1 920 pixels
Height                                   : 800 pixels
Display aspect ratio                     : 2.40:1
Frame rate mode                          : Constant
Frame rate                               : 23.976 (24000/1001) FPS
Color space                              : YUV
Chroma subsampling                       : 4:2:0
Bit depth                                : 10 bits
Bits/(Pixel*Frame)                       : 0.187
Stream size                              : 6.16 GiB (66%)
Language                                 : English
Default                                  : Yes
Forced                                   : No
Color range                              : Limited
Color primaries                          : BT.709
Transfer characteristics                 : BT.709
Matrix coefficients                      : BT.709

Audio #1
ID                                       : 2
Format                                   : MLP FBA
Format/Info                              : Meridian Lossless Packing FBA
Commercial name                          : Dolby TrueHD
Codec ID                                 : A_TRUEHD
Duration                                 : 2 h 8 min
Bit rate mode                            : Variable
Bit rate                                 : 2 223 kb/s
Maximum bit rate                         : 4 026 kb/s
Channel(s)                               : 6 channels
Channel layout                           : L R C LFE Ls Rs
Sampling rate                            : 96.0 kHz
Frame rate                               : 1 200.000 FPS (80 SPF)
Compression mode                         : Lossless
Stream size                              : 1.99 GiB (21%)
Language                                 : Korean
Default                                  : Yes
Forced                                   : No

Audio #2
ID                                       : 3
Format                                   : AC-3
Format/Info                              : Audio Coding 3
Commercial name                          : Dolby Digital
Codec ID                                 : A_AC3
Duration                                 : 2 h 8 min
Bit rate mode                            : Constant
Bit rate                                 : 640 kb/s
Channel(s)                               : 6 channels
Channel layout                           : L R C LFE Ls Rs
Sampling rate                            : 48.0 kHz
Frame rate                               : 31.250 FPS (1536 SPF)
Bit depth                                : 16 bits
Compression mode                         : Lossy
Stream size                              : 587 MiB (6%)
Language                                 : Korean
Service kind                             : Complete Main
Default                                  : No
Forced                                   : No

Audio #3
ID                                       : 4
Format                                   : AC-3
Format/Info                              : Audio Coding 3
Commercial name                          : Dolby Digital
Codec ID                                 : A_AC3
Duration                                 : 2 h 8 min
Bit rate mode                            : Constant
Bit rate                                 : 640 kb/s
Channel(s)                               : 6 channels
Channel layout                           : L R C LFE Ls Rs
Sampling rate                            : 48.0 kHz
Frame rate                               : 31.250 FPS (1536 SPF)
Bit depth                                : 16 bits
Compression mode                         : Lossy
Stream size                              : 587 MiB (6%)
Language                                 : Chinese
Service kind                             : Complete Main
Default                                  : No
Forced                                   : No

Text #1
ID                                       : 5
Format                                   : PGS
Muxing mode                              : zlib
Codec ID                                 : S_HDMV/PGS
Codec ID/Info                            : Picture based subtitle format used on BDs/HD-DVDs
Duration                                 : 2 h 3 min
Bit rate                                 : 30.5 kb/s
Count of elements                        : 3130
Stream size                              : 26.8 MiB (0%)
Language                                 : Chinese
Default                                  : Yes
Forced                                   : No

Text #2
ID                                       : 6
Format                                   : PGS
Muxing mode                              : zlib
Codec ID                                 : S_HDMV/PGS
Codec ID/Info                            : Picture based subtitle format used on BDs/HD-DVDs
Duration                                 : 2 h 3 min
Bit rate                                 : 35.9 kb/s
Count of elements                        : 2933
Stream size                              : 31.7 MiB (0%)
Language                                 : English
Subs
En

MikeKhan /Desitorrents.tv
Category:Movies > HD 1080p
Lang:Korean  Korean
Total Size:9.38 GB
Info Hash:dcddf0532d4c48eaa6adb592cddb0cc6b1b31204
Added By:DDR
Date Added:23-05-2020 00:25:31

  

Files

File List: 
 File Size
Ashfall.2019.KOREAN.MULTi-2.1080p.BluRay.HEVC.TrueHD.5.1-DDR.mkv9.38 GB



Comments

There are currently no comments. Be the first one to write something !