Becky 2020 locke and key s01e06 Blindspot Harley Quinn s02e10 Rick and Morty S04E10 The 100 S07E03 etrg The Walking Dead  The Hunt 2020 dc week SEAL Team Jersey Shore Family Vacation s03e27 Marvels Agents of S.H.I.E.L.D. S07E02 ethd BILLIONS rq.mp4 alex rider Chicago Fire The Last Days of American Crime 2020 13 Reasons Why Season 4 WWE Bering Sea Gold S12E05 Greys Anatomy ita evo Space Force s01e02 Survive the Night 2020 ddr harley quinn Gangs of London S01E07 Marvel Week The Blackout Invasion Earth 2019 killing eve in the dark Birds of Prey (and the Fantabulous Emancipation of One Harley Quinn) 2020 13 Reasons Why S04 XXX game of thrones Last Week Tonight 0 ufc 2160p The Gentlemen 2020 what we do in the shadows ettv Chicago PD Rick and Morty etmovies snowpiercer yts Brazzers Best Of Brazzers Scoob! 2020 love life The Invisible Man 2020 Blindspot S05E04 stargirl Hindi  Real Time with Bill Maher S18E17 Choked the 100 13 Reasons Why Space Force S01E01 Westworld Alex Rider S01E01 legends of tomorrow YTS Bad Boys for Life 2020 Chicago Med hindi 2020 
Warning! Use a VPN When Downloading Torrents!
Your IP Address is 34.204.193.85. Location United States
Your Internet Provider can see when you download torrents! Hide your IP Address with a VPN
ETTV warns: You should use VPN to hide your torrenting. HIDE ME NOW
ETTV Recommended TV Shows
Man.With.a.Plan.S04E12.720p.x265.ETRG torrent
In.the.Dark.2019.S02E08.HDTV.x264-SVA[ettv] torrent
Blindspot.S05E04.HDTV.x264-SVA[ettv] torrent
WWE Friday Night SmackDown 2020 06 05 HDTV x264-NWCHD [TJET] torrent
Jimmy.Fallon.2020.06.04.Bernie.Sanders.WEB.h264-TRUMP[ettv] torrent
Real.Time.with.Bill.Maher.2020.06.05.WEB.h264-TRUMP[ettv] torrent

ETTV Recommended SD
Sniper Assassins End.2020.BDRip.x264.AC3-EVO.ETRG torrent
Hammer.2020.1080p.WEBRip.X264.DD.5.1-EVO.ETRG torrent
Three.Christs.2020.BDRip.x264.AC3-EVO.ETRG torrent
Dating.Amber.2020.1080p.AMZN.WEBRip.X264.DD.5.1-EVO.ETRG torrent

ETTV Recommended HD
The.Last.Days.of.American.Crime.2020.NF.WEB-DL.DDP2.0.x264-CMRG[EtHD] torrent
Shutter.Island.2010.BRRip.1080p.HEVC.HDR.Eng.DD5.1.ETRG torrent
Dating.Amber.2020.1080p.AMZN.WEBRip.X264.DD.5.1-EVO[EtHD] torrent
Annabellum.The.Curse.of.Salem.2019.1080p.WEB-DL.AAC2.0.H.264-CMRG[EtHD] torrent

ETTV Recommended UHD
Last.Flag.Flying.2017.UHD.2160p.HDR.WebRip.DDP.5.1.HEVC-DDR.mkv torrent
Suicide.Squad.Hell.to.Pay.2018.MULTi.UHD.BluRay.2160p.HDR.DTS-HDMA.5.1.HEVC-DDR.mkv torrent
The.Shining.1980.BDRip.2160p.UHD.HDR.Eng.DTS-HD.MA.ETRG torrent
Shutter.Island.2010.BDRip.2160p.UHD.HDR.Eng.DTS-HD.MA.ETRG torrent

ETTV Recommended Cam
The Hunt 2020 HDCAM x264 AC3-ETRG torrent
The Burnt Orange Heresy 2020 720p HDCAM-C1NEM4 torrent

ETTV Recommended Foreign
Motel Acacia (2019) HDRip 720p [Hindi-Dub] Dual-Audio x264 - 1XCinema torrent
Robotrix (1991) UNRATED 720p BluRay x264 Eng Subs [Dual Audio] [Hindi DD 2.0 - Chinese 2.0] Exclusive By -=!Dr.STAR!=- torrent
Sarileru Neekevvaru (2020) [TELUGU - 720p - WEB HDRip - x264 - DD 5.1 - MSub - 2GB] - MAZE torrent
Murder Manual (2020) HDRip 720p [Hindi-Sub] x264 - 1XCinema torrent
Le.Boucher.1970.(Claude.Chabrol-Thriller).720p.x264-Classics torrent
Bheeshma (2020) [TELUGU - 720p - WEB HDRip - x264 - DD 5.1 - MSub - 2GB] - MAZE torrent

Sponsored


Download Torrent "The 100 (2014) S07E01 From the Ashes (1080p AMZN Webrip x265 10bit EAC3 5.1..."

IMDB Details
Description:

Set ninety-seven years after a nuclear war has destroyed civilization, when a spaceship housing humanity's lone survivors sends one hundred juvenile delinquents back to Earth, in hopes of possibly re-populating the planet.

Genre:

Drama, Mystery, Sci-Fi

Download Torrent (Magnet)
Download Torrent (File)
Seeds: 148
Leechers: 37
Completed: 760 
Last Checked: 23-05-2020 00:09:02


Details
Title:The 100 (2014) S07E01 From the Ashes (1080p AMZN Webrip x265 10bit EAC3 5.1...
Description:

Media Information

General
Unique ID                                : 160678064323298883390311574429862388218 (0x78E1783456FD270CAEAE00FD1342E1FA)
Complete name                            : The 100 (2014) S07E01 From the Ashes (1080p AMZN Webrip x265 10bit EAC3 5.1 - ArcX)[TAoE].mkv
Format                                   : Matroska
Format version                           : Version 4
File size                                : 1.57 GiB
Duration                                 : 42 min 18 s
Overall bit rate                         : 5 316 kb/s
Movie name                               : The 100 (2014) S07E01 From the Ashes (1080p AMZN Webrip x265 10bit EAC3 5.1 - ArcX)[TAoE].mkv
Writing application                      : Lavf58.29.100
Writing library                          : Lavf58.29.100
ErrorDetectionType                       : Per level 1

Video
ID                                       : 1
Format                                   : HEVC
Format/Info                              : High Efficiency Video Coding
Format profile                           : Main [email protected]@Main
Codec ID                                 : V_MPEGH/ISO/HEVC
Duration                                 : 42 min 18 s
Bit rate                                 : 4 673 kb/s
Width                                    : 1 920 pixels
Height                                   : 1 080 pixels
Display aspect ratio                     : 16:9
Frame rate mode                          : Constant
Frame rate                               : 23.976 (24000/1001) FPS
Color space                              : YUV
Chroma subsampling                       : 4:2:0
Bit depth                                : 10 bits
Bits/(Pixel*Frame)                       : 0.094
Stream size                              : 1.38 GiB (88%)
Title                                    : Encoded by ArcX for TAoE
Writing library                          : x265 3.2+35-acc5d16999e2:[Windows][GCC 9.2.1][64 bit] 10bit
Encoding settings                        : cpuid=1111039 / frame-threads=3 / numa-pools=12 / wpp / no-pmode / no-pme / no-psnr / no-ssim / log-level=2 / input-csp=1 / input-res=1920x1080 / interlace=0 / total-frames=0 / level-idc=0 / high-tier=1 / uhd-bd=0 / ref=4 / no-allow-non-conformance / no-repeat-headers / annexb / no-aud / no-hrd / info / hash=0 / no-temporal-layers / open-gop / min-keyint=23 / keyint=250 / gop-lookahead=0 / bframes=8 / b-adapt=2 / b-pyramid / bframe-bias=0 / rc-lookahead=80 / lookahead-slices=4 / scenecut=40 / hist-scenecut=0 / radl=0 / no-splice / no-intra-refresh / ctu=64 / min-cu-size=8 / no-rect / no-amp / max-tu-size=32 / tu-inter-depth=1 / tu-intra-depth=1 / limit-tu=0 / rdoq-level=2 / dynamic-rd=0.00 / no-ssim-rd / signhide / no-tskip / nr-intra=0 / nr-inter=0 / no-constrained-intra / no-strong-intra-smoothing / max-merge=3 / limit-refs=3 / limit-modes / me=3 / subme=5 / merange=57 / temporal-mvp / no-frame-dup / no-hme / weightp / no-weightb / no-analyze-src-pics / deblock=0:0 / sao / no-sao-non-deblock / rd=4 / selective-sao=4 / no-early-skip / rskip / no-fast-intra / no-tskip-fast / no-cu-lossless / no-b-intra / no-splitrd-skip / rdpenalty=0 / psy-rd=1.30 / psy-rdoq=2.00 / no-rd-refine / no-lossless / cbqpoffs=0 / crqpoffs=0 / rc=crf / crf=20.0 / qcomp=0.60 / qpstep=4 / stats-write=0 / stats-read=0 / ipratio=1.40 / pbratio=1.30 / aq-mode=4 / aq-strength=1.10 / cutree / zone-count=0 / no-strict-cbr / qg-size=32 / no-rc-grain / qpmax=69 / qpmin=0 / no-const-vbv / sar=1 / overscan=0 / videoformat=5 / range=0 / colorprim=2 / transfer=2 / colormatrix=2 / chromaloc=0 / display-window=0 / cll=0,0 / min-luma=0 / max-luma=1023 / log2-max-poc-lsb=8 / vui-timing-info / vui-hrd-info / slices=1 / no-opt-qp-pps / no-opt-ref-list-length-pps / no-multi-pass-opt-rps / scenecut-bias=0.05 / hist-threshold=0.01 / no-opt-cu-delta-qp / no-aq-motion / no-hdr10 / no-hdr10-opt / no-dhdr10-opt / no-idr-recovery-sei / analysis-reuse-level=0 / analysis-save-reuse-level=0 / analysis-load-reuse-level=0 / scale-factor=0 / refine-intra=0 / refine-inter=0 / refine-mv=1 / refine-ctu-distortion=0 / no-limit-sao / ctu-info=0 / no-lowpass-dct / refine-analysis-type=0 / copy-pic=1 / max-ausize-factor=1.0 / no-dynamic-refine / no-single-sei / no-hevc-aq / no-svt / no-field / qp-adaptation-range=1.00 / no-scenecut-aware-qpconformance-window-offsets / right=0 / bottom=0
Default                                  : Yes
Forced                                   : No
Color range                              : Limited

Audio
ID                                       : 2
Format                                   : E-AC-3
Format/Info                              : Enhanced AC-3
Commercial name                          : Dolby Digital Plus
Codec ID                                 : A_EAC3
Duration                                 : 42 min 18 s
Bit rate mode                            : Constant
Bit rate                                 : 640 kb/s
Channel(s)                               : 6 channels
Channel layout                           : L R C LFE Ls Rs
Sampling rate                            : 48.0 kHz
Frame rate                               : 31.250 FPS (1536 SPF)
Bit depth                                : 32 bits
Compression mode                         : Lossy
Stream size                              : 194 MiB (12%)
Language                                 : English
Service kind                             : Complete Main
Default                                  : Yes
Forced                                   : No

Text #1
ID                                       : 3
Format                                   : UTF-8
Codec ID                                 : S_TEXT/UTF8
Codec ID/Info                            : UTF-8 Plain Text
Duration                                 : 41 min 15 s
Bit rate                                 : 62 b/s
Count of elements                        : 690
Stream size                              : 18.7 KiB (0%)
Language                                 : English
Default                                  : No
Forced                                   : No

Text #2
ID                                       : 4
Format                                   : UTF-8
Codec ID                                 : S_TEXT/UTF8
Codec ID/Info                            : UTF-8 Plain Text
Duration                                 : 41 min 17 s
Bit rate                                 : 64 b/s
Count of elements                        : 741
Stream size                              : 19.6 KiB (0%)
Title                                    : SDH
Language                                 : English
Default                                  : No
Forced                                   : No

Source
1080p AMZN WEB-DL CasStudio

Hello everyone,
We are TAoE, a small team of passionate encoders who love encoding. We try our best to provide you with high quality releases.
If you would like to join the team just drop us a comment or send us a message.




.........................................................................................................................................

Category:TV > HEVC/x265
Lang:English  English
Total Size:1.57 GB
Info Hash:ecce8a1679b1f9e774ed0ef82a86936535321d91
Added By:Goki
Date Added:23-05-2020 00:08:57

Files

File List: 
 File Size
The 100 (2014) S07E01 From the Ashes (1080p AMZN Webrip x265 10bit EAC3 5.1 - ArcX)[TAoE].mkv1.57 GB



Comments

There are currently no comments. Be the first one to write something !