Survive the Night 2020 Space Force S01E01 Marvel Week Brazzers Best Of Brazzers game of thrones  13 Reasons Why Season 4 WWE  legends of tomorrow SEAL Team Blindspot evo choked yts Alex Rider S01E01 Chicago Med Greys Anatomy baki agents of shield Americas Got Talent S15E02 Last Week Tonight snowpiercer etrg Man With a Plan S04E12 Gangs of London S01E07 killing eve  The Real Housewives of Beverly Hills S10E08 Billions S05E05 Deadliest Catch S16E08 ettv 2160p stargirl The Challenge S35E10 rq.mp4 Scoob! 2020 XXX The Hunt 2020 Space Force s01e02 Love life hindi Rick and Morty Billions westworld The Blackout Invasion Earth 2019 DCs Legends of Tomorrow S05E15 13 reasons why Rick and Morty S04E10 what we do in the shadows locke and key s01e06 minx ita what we do in the shadows S02e09 13 reasons why s04 ddr The 100 S07E03 0 the challenge dc week The 100 Jersey Shore Family Vacation S03E27 Chicago Fire hindi 2020 Marvels Agents of S.H.I.E.L.D. S07E02 etmovies Blindspot S05E04 harley quinn alex rider AEW ethd 
Warning! Use a VPN When Downloading Torrents!
Your IP Address is 34.204.176.125. Location United States
Your Internet Provider can see when you download torrents! Hide your IP Address with a VPN
ETTV warns: You should use VPN to hide your torrenting. HIDE ME NOW
ETTV Recommended TV Shows
The.100.S07E03.WEB.H264-ALiGN[ettv] torrent
Man.With.a.Plan.S04E12.720p.x265.ETRG torrent
In.the.Dark.2019.S02E08.HDTV.x264-SVA[ettv] torrent
Blindspot.S05E04.HDTV.x264-SVA[ettv] torrent

ETTV Recommended SD
Equal.Standard.2020.HDRip.XviD.AC3-EVO torrent
They.Reach.2020.BRRip.XviD.AC3-EVO torrent
Acrylic.2020.HDRip.XviD.AC3-EVO torrent
Think.Like.a.Dog.2020.BDRip.XviD.AC3-EVO torrent

ETTV Recommended HD
Becky.2020.1080p.WEB-DL.H264.AC3-EVO[EtHD] torrent
The.Deeper.You.Dig.2019.1080p.WEB-DL.H264.AC3-EVO[EtHD] torrent
The.Last.Days.of.American.Crime.2020.NF.WEB-DL.DDP2.0.x264-CMRG[EtHD] torrent
Shutter.Island.2010.BRRip.1080p.HEVC.HDR.Eng.DD5.1.ETRG torrent

ETTV Recommended UHD
Last.Flag.Flying.2017.UHD.2160p.HDR.WebRip.DDP.5.1.HEVC-DDR.mkv torrent
Suicide.Squad.Hell.to.Pay.2018.MULTi.UHD.BluRay.2160p.HDR.DTS-HDMA.5.1.HEVC-DDR.mkv torrent
The.Shining.1980.BDRip.2160p.UHD.HDR.Eng.DTS-HD.MA.ETRG torrent
Shutter.Island.2010.BDRip.2160p.UHD.HDR.Eng.DTS-HD.MA.ETRG torrent

ETTV Recommended Cam
The Hunt 2020 HDCAM x264 AC3-ETRG torrent
The Burnt Orange Heresy 2020 720p HDCAM-C1NEM4 torrent

ETTV Recommended Foreign
Chintu.Ka.Birthday.2020.1080p.ZEE5.WEB-DL.AAC.2.0.H.264-Telly torrent
Devdas (2002) Hindi (2160p Upscaled WEBRip x265 HEVC 10bit DDP 5.1 ESub) - [Musafirboy] torrent
Choked.Paisa.Bolta.Hai.2020.1080p.NF.WEB-DL.DDP5.1.x264-Telly torrent
Aani Kay Hava 2019 Season 1 Marathi 1080p Web-DL x264 AAC [TMB] torrent
Guardiani dei mondi (2018) [BluRay Rip 1080p ITA-RUS DTS-AC3 SUBS] [M@HD] torrent
Motel Acacia (2019) HDRip 720p [Hindi-Dub] Dual-Audio x264 - 1XCinema torrent

Sponsored


Download Torrent "The Last of the Mohicans (1992) (1080p BDRip x265 10bit EAC3 5.1 - r0b0t) [..."

IMDB Details
Description:

Three trappers protect the daughters of a British Colonel in the midst of the French and Indian War.

Genre:

Action, Adventure, Drama, Romance, War

Download Torrent (Magnet)
Download Torrent (File)
Seeds: 216
Leechers: 144
Completed: 739 
Last Checked: 22-05-2020 23:44:01


Details
Title:The Last of the Mohicans (1992) (1080p BDRip x265 10bit EAC3 5.1 - r0b0t) [...
Description:

Source
The.Last.Of.The.Mohicans.1992.REMUX.1080p.BluRay.DTS-HD.AVC.MA.5.1-LEGi0N

Media Information
General
Unique ID                      : 114413264207277519238868096413086946239 (0x56133172BFDF36F65F62BC755F2E93BF)
Complete name                  : The Last of the Mohicans (1992) (1080p BDRip x265 10bit EAC3 5.1 - r0b0t) [TAoE].mkv
Format                         : Matroska
Format version                 : Version 4 / Version 2
File size                      : 3.09 GiB
Duration                       : 1 h 54 min
Overall bit rate               : 3 868 kb/s
Writing application            : Lavf58.29.100
Writing library                : Lavf58.29.100 / Lavf58.29.100
ErrorDetectionType             : Per level 1

Video
ID                             : 1
Format                         : HEVC
Format/Info                    : High Efficiency Video Coding
Format profile                 : Main [email protected]@Main
Codec ID                       : V_MPEGH/ISO/HEVC
Bit rate                       : 3 343 kb/s
Width                          : 1 920 pixels
Height                         : 1 080 pixels
Display aspect ratio           : 16:9
Frame rate mode                : Variable
Original frame rate            : 23.976 FPS
Color space                    : YUV
Chroma subsampling             : 4:2:0
Bit depth                      : 10 bits
Title                          : Encoded by r0b0t for TAoE using Shinguru V1.2
Writing library                : x265 3.2+35-acc5d16999e2:[Windows][GCC 9.2.1][64 bit] 10bit
Encoding settings              : cpuid=1049583 / frame-threads=5 / numa-pools=16,16 / wpp / no-pmode / no-pme / no-psnr / no-ssim / log-level=2 / input-csp=1 / input-res=1920x1080 / interlace=0 / total-frames=0 / level-idc=0 / high-tier=1 / uhd-bd=0 / ref=4 / no-allow-non-conformance / no-repeat-headers / annexb / no-aud / no-hrd / info / hash=0 / no-temporal-layers / open-gop / min-keyint=23 / keyint=250 / gop-lookahead=0 / bframes=8 / b-adapt=2 / b-pyramid / bframe-bias=0 / rc-lookahead=80 / lookahead-slices=4 / scenecut=40 / hist-scenecut=0 / radl=0 / no-splice / no-intra-refresh / ctu=64 / min-cu-size=8 / no-rect / no-amp / max-tu-size=32 / tu-inter-depth=1 / tu-intra-depth=1 / limit-tu=0 / rdoq-level=2 / dynamic-rd=0.00 / no-ssim-rd / signhide / no-tskip / nr-intra=0 / nr-inter=0 / no-constrained-intra / no-strong-intra-smoothing / max-merge=3 / limit-refs=3 / limit-modes / me=3 / subme=5 / merange=57 / temporal-mvp / no-frame-dup / no-hme / weightp / no-weightb / no-analyze-src-pics / deblock=0:0 / sao / no-sao-non-deblock / rd=4 / selective-sao=4 / no-early-skip / rskip / no-fast-intra / no-tskip-fast / no-cu-lossless / no-b-intra / no-splitrd-skip / rdpenalty=0 / psy-rd=1.30 / psy-rdoq=2.00 / no-rd-refine / no-lossless / cbqpoffs=0 / crqpoffs=0 / rc=crf / crf=21.0 / qcomp=0.60 / qpstep=4 / stats-write=0 / stats-read=0 / ipratio=1.40 / pbratio=1.30 / aq-mode=4 / aq-strength=1.10 / cutree / zone-count=0 / no-strict-cbr / qg-size=32 / no-rc-grain / qpmax=69 / qpmin=0 / no-const-vbv / sar=1 / overscan=0 / videoformat=5 / range=0 / colorprim=2 / transfer=2 / colormatrix=2 / chromaloc=0 / display-window=0 / cll=0,0 / min-luma=0 / max-luma=1023 / log2-max-poc-lsb=8 / vui-timing-info / vui-hrd-info / slices=1 / no-opt-qp-pps / no-opt-ref-list-length-pps / no-multi-pass-opt-rps / scenecut-bias=0.05 / hist-threshold=0.01 / no-opt-cu-delta-qp / no-aq-motion / no-hdr10 / no-hdr10-opt / no-dhdr10-opt / no-idr-recovery-sei / analysis-reuse-level=0 / analysis-save-reuse-level=0 / analysis-load-reuse-level=0 / scale-factor=0 / refine-intra=0 / refine-inter=0 / refine-mv=1 / refine-ctu-distortion=0 / no-limit-sao / ctu-info=0 / no-lowpass-dct / refine-analysis-type=0 / copy-pic=1 / max-ausize-factor=1.0 / no-dynamic-refine / no-single-sei / no-hevc-aq / no-svt / no-field / qp-adaptation-range=1.00 / no-scenecut-aware-qpconformance-window-offsets / right=0 / bottom=0
Language                       : English
Default                        : Yes
Forced                         : No
Color range                    : Limited
Statistics Tags Issue          : mkvpropedit v28.2.0 ('The Awakening') 64-bit 2020-05-22 20:23:30 / Lavf58.29.100
FromStats_BitRate              : 3348230
FromStats_Duration             : 01:54:33.079708333
FromStats_FrameCount           : 164789
FromStats_StreamSize           : 2876581384

Audio
ID                             : 2
Format                         : E-AC-3
Format/Info                    : Enhanced Audio Coding 3
Format settings, Endianness    : Big
Codec ID                       : A_EAC3
Duration                       : 1 h 54 min
Bit rate mode                  : Constant
Bit rate                       : 448 kb/s
Channel(s)                     : 6 channels
Channel positions              : Front: L C R, Side: L R, LFE
Sampling rate                  : 48.0 kHz
Frame rate                     : 187.500 FPS (256 spf)
Bit depth                      : 24 bits
Compression mode               : Lossy
Stream size                    : 367 MiB (12%)
Writing library                : Lavc58.54.100 eac3
Language                       : English
Default                        : Yes
Forced                         : No
Statistics Tags Issue          : mkvpropedit v28.2.0 ('The Awakening') 64-bit 2020-05-22 20:23:30 / Lavf58.29.100
FromStats_BitRate              : 448002
FromStats_Duration             : 01:54:33.056000000
FromStats_FrameCount           : 214784
FromStats_StreamSize           : 384892928

Text #1
ID                             : 3
Format                         : PGS
Codec ID                       : S_HDMV/PGS
Codec ID/Info                  : Picture based subtitle format used on BDs/HD-DVDs
Title                          : English
Language                       : English
Default                        : No
Forced                         : No
Statistics Tags Issue          : mkvpropedit v28.2.0 ('The Awakening') 64-bit 2020-05-22 20:23:30 / Lavf58.29.100
FromStats_BitRate              : 23506
FromStats_Duration             : 01:54:11.053000000
FromStats_FrameCount           : 1730
FromStats_StreamSize           : 20130906

Text #2
ID                             : 4
Format                         : PGS
Codec ID                       : S_HDMV/PGS
Codec ID/Info                  : Picture based subtitle format used on BDs/HD-DVDs
Title                          : Spanish
Language                       : Spanish
Default                        : No
Forced                         : No
Statistics Tags Issue          : mkvpropedit v28.2.0 ('The Awakening') 64-bit 2020-05-22 20:23:30 / Lavf58.29.100
FromStats_BitRate              : 22455
FromStats_Duration             : 01:54:05.756000000
FromStats_FrameCount           : 1514
FromStats_StreamSize           : 19215954

Text #3
ID                             : 5
Format                         : PGS
Codec ID                       : S_HDMV/PGS
Codec ID/Info                  : Picture based subtitle format used on BDs/HD-DVDs
Title                          : French
Language                       : French
Default                        : No
Forced                         : No
Statistics Tags Issue          : mkvpropedit v28.2.0 ('The Awakening') 64-bit 2020-05-22 20:23:30 / Lavf58.29.100
FromStats_BitRate              : 22260
FromStats_Duration             : 01:54:05.756000000
FromStats_FrameCount           : 1512
FromStats_StreamSize           : 19048685

Menu
00:00:00.000                   : :Chapter 01
00:01:55.365                   : :Chapter 02
00:04:29.060                   : :Chapter 03
00:06:48.241                   : :Chapter 04
00:08:43.272                   : :Chapter 05
00:12:32.960                   : :Chapter 06
00:14:55.102                   : :Chapter 07
00:22:15.667                   : :Chapter 08
00:24:32.929                   : :Chapter 09
00:28:11.940                   : :Chapter 10
00:33:58.411                   : :Chapter 11
00:43:30.316                   : :Chapter 12
00:45:41.738                   : :Chapter 13
00:47:19.378                   : :Chapter 14
00:48:52.888                   : :Chapter 15
00:52:03.578                   : :Chapter 16
00:54:33.353                   : :Chapter 17
00:57:42.667                   : :Chapter 18
01:00:09.522                   : :Chapter 19
01:03:15.291                   : :Chapter 20
01:07:43.726                   : :Chapter 21
01:10:35.022                   : :Chapter 22
01:12:41.065                   : :Chapter 23
01:18:58.775                   : :Chapter 24
01:22:16.890                   : :Chapter 25
01:24:50.543                   : :Chapter 26
01:31:29.609                   : :Chapter 27
01:34:46.806                   : :Chapter 28
01:39:30.130                   : :Chapter 29
01:44:30.931                   : :Chapter 30
01:46:38.517                   : :Chapter 31
01:49:18.385                   : :Chapter 32

Source Information
General
Unique ID                      : 237120967864387877705306991725654782882 (0xB263D655B3BF27BBA4A65215DC2733A2)
Complete name                  : The.Last.Of.The.Mohicans.1992.REMUX.1080p.BluRay.DTS-HD.AVC.MA.5.1-LEGi0N.mkv
Format                         : Matroska
Format version                 : Version 4 / Version 2
File size                      : 33.1 GiB
Duration                       : 1 h 54 min
Overall bit rate mode          : Variable
Overall bit rate               : 41.3 Mb/s
Encoded date                   : UTC 2016-10-16 12:23:07
Writing application            : mkvmerge v9.4.0 ('Knurl') 64bit
Writing library                : libebml v1.3.4 + libmatroska v1.4.5

Video
ID                             : 1
Format                         : AVC
Format/Info                    : Advanced Video Codec
Format profile                 : [email protected]
Format settings, CABAC         : Yes
Format settings, ReFrames      : 4 frames
Codec ID                       : V_MPEG4/ISO/AVC
Duration                       : 1 h 54 min
Bit rate mode                  : Variable
Bit rate                       : 37.5 Mb/s
Maximum bit rate               : 39.0 Mb/s
Width                          : 1 920 pixels
Height                         : 1 080 pixels
Display aspect ratio           : 16:9
Frame rate mode                : Constant
Frame rate                     : 23.976 (24000/1001) FPS
Color space                    : YUV
Chroma subsampling             : 4:2:0
Bit depth                      : 8 bits
Scan type                      : Progressive
Bits/(Pixel*Frame)             : 0.754
Stream size                    : 30.0 GiB (91%)
Title                          : English
Language                       : English
Default                        : Yes
Forced                         : No
Color range                    : Limited
Color primaries                : BT.709
Transfer characteristics       : BT.709
Matrix coefficients            : BT.709

Audio
ID                             : 2
Format                         : DTS
Format/Info                    : Digital Theater Systems
Format profile                 : MA / Core
Mode                           : 16
Format settings, Endianness    : Big
Codec ID                       : A_DTS
Duration                       : 1 h 54 min
Bit rate mode                  : Variable / Constant
Bit rate                       : 3 840 kb/s / 1 509 kb/s
Channel(s)                     : 6 channels
Channel positions              : Front: L C R, Side: L R, LFE
Sampling rate                  : 48.0 kHz
Frame rate                     : 93.750 FPS (512 spf)
Bit depth                      : 24 bits
Compression mode               : Lossless / Lossy
Stream size                    : 3.02 GiB (9%)
Language                       : English
Default                        : Yes
Forced                         : No

Text #1
ID                             : 3
Format                         : PGS
Codec ID                       : S_HDMV/PGS
Codec ID/Info                  : Picture based subtitle format used on BDs/HD-DVDs
Duration                       : 1 h 54 min
Bit rate                       : 23.5 kb/s
Count of elements              : 1730
Stream size                    : 19.2 MiB (0%)
Title                          : English
Language                       : English
Default                        : No
Forced                         : No

Text #2
ID                             : 4
Format                         : PGS
Codec ID                       : S_HDMV/PGS
Codec ID/Info                  : Picture based subtitle format used on BDs/HD-DVDs
Duration                       : 1 h 54 min
Bit rate                       : 22.5 kb/s
Count of elements              : 1514
Stream size                    : 18.3 MiB (0%)
Title                          : Spanish
Language                       : Spanish
Default                        : No
Forced                         : No

Text #3
ID                             : 5
Format                         : PGS
Codec ID                       : S_HDMV/PGS
Codec ID/Info                  : Picture based subtitle format used on BDs/HD-DVDs
Duration                       : 1 h 54 min
Bit rate                       : 22.3 kb/s
Count of elements              : 1512
Stream size                    : 18.2 MiB (0%)
Title                          : French
Language                       : French
Default                        : No
Forced                         : No

Menu
00:00:00.000                   : en:Chapter 01
00:01:55.365                   : en:Chapter 02
00:04:29.060                   : en:Chapter 03
00:06:48.241                   : en:Chapter 04
00:08:43.272                   : en:Chapter 05
00:12:32.960                   : en:Chapter 06
00:14:55.102                   : en:Chapter 07
00:22:15.667                   : en:Chapter 08
00:24:32.929                   : en:Chapter 09
00:28:11.940                   : en:Chapter 10
00:33:58.411                   : en:Chapter 11
00:43:30.316                   : en:Chapter 12
00:45:41.738                   : en:Chapter 13
00:47:19.378                   : en:Chapter 14
00:48:52.888                   : en:Chapter 15
00:52:03.578                   : en:Chapter 16
00:54:33.353                   : en:Chapter 17
00:57:42.667                   : en:Chapter 18
01:00:09.522                   : en:Chapter 19
01:03:15.291                   : en:Chapter 20
01:07:43.726                   : en:Chapter 21
01:10:35.022                   : en:Chapter 22
01:12:41.065                   : en:Chapter 23
01:18:58.775                   : en:Chapter 24
01:22:16.890                   : en:Chapter 25
01:24:50.543                   : en:Chapter 26
01:31:29.609                   : en:Chapter 27
01:34:46.806                   : en:Chapter 28
01:39:30.130                   : en:Chapter 29
01:44:30.931                   : en:Chapter 30
01:46:38.517                   : en:Chapter 31
01:49:18.385                   : en:Chapter 32

Hello everyone,
We are TAoE, a small team of passionate encoders who love encoding. We try our best to provide you with high quality releases.

Requests for movies and shows are welcome.
We have a form for encode requests which can be found here
Encode requests form
submit your request and it will be added to our encoding request list
You can view our encoding request list here
Encode requests list


When or if we encode it will depend on if we can obtain a good source to encode with and
if one of the TAoE encoders chooses to encode it. Unfortunately we are not able to encode everything,
new members are welcome as that helps us encode more content!

If you would like to join TAoE submit your request here!
TAoE member applications form





.........................................................................................................................................

Category:Movies > HEVC/x265
Lang:English  English
Total Size:3.09 GB
Info Hash:8f79fca4952240fa234cfef15a6119a5c49e7b35
Added By:Goki
Date Added:22-05-2020 23:43:55

Files

File List: 
 File Size
The Last of the Mohicans (1992) (1080p BDRip x265 10bit EAC3 5.1 - r0b0t) [TAoE].mkv3.09 GB



Comments

There are currently no comments. Be the first one to write something !