the 100 ethd Sonic the Hedgehog 2020 rick and morty s04e09 evo ettv 2160p betaal Scoob! 2020 batwoman the flash The Hunt 2020 insecure The Gentlemen 2020 Birds of Prey (and the Fantabulous Emancipation of One Harley Quinn) 2020 supergirl Extraction 2020 The Blackout hindi hightown Outlander  0 run Snowpiercer S01E02 The Lovebirds 2020 seal team  AEW rick and morty s04e08 legends of tomorrow westworld star wars the rise of skywalker 2019 BILLIONS Hightown S01E02 rq.mp4 etmovies EtHD ddr Stargirl S01E01 The Invisible Man 2020 penny dreadful defending jacob Survive the Night 2020 Good Witch S06E04 Rick and Morty stargirl wwe stargirl s01e02 Penny Dreadful City of Angels S01E05 what we do in the shadows Killing Eve S03E07 Defending Jacob S01E07 Capone 2020 ufc Modern Love s01e07 Live PD s04e65 Billions S05E04 Killing Eve yts Locke  Bloodshot 2020 Harley Quinn Xxx Bad Boys for Life 2020 etrg snowpiercer Blindspot Inheritance 2020 90 Day Fiance Before The 90 Days S04E14 The Wrong Missy 2020 
Warning! Use a VPN When Downloading Torrents!
Your IP Address is 3.235.172.213. Location United States
Your Internet Provider can see when you download torrents! Hide your IP Address with a VPN
ETTV warns: You should use VPN to hide your torrenting. HIDE ME NOW
ETTV Recommended TV Shows
American.Dad.S16E07.HDTV.x264-KILLERS[ettv] torrent
Almost.Paradise.S01E09.HDTV.x264-KILLERS[ettv] torrent
The.Baker.and.the.Beauty.US.S01E07.HDTV.x264-KILLERS[ettv] torrent
WWE RAW 25th May 2020 HDTV x264-TJ [TJET] torrent

ETTV Recommended SD
Measure.For.Measure.2020.HDRip.XviD.AC3-EVO torrent
Return.Of.The.Tooth.Fairy.2020.HDRip.XviD.AC3-EVO torrent
Coven.Of.Evil.2020.HDRip.XviD.AC3-EVO torrent
Celebrity.Crush.2019.HDRip.XviD.AC3-EVO torrent

ETTV Recommended HD
Adventures.Of.Rufus.The.Fantastic.Pet.2020.1080p.WEB-DL.H264.AC3-EVO[EtHD] torrent
The.Last.Beyond.2019.1080p.WEB-DL.H264.AC3-EVO[EtHD] torrent
Straight.Up.2020.1080p.WEB-DL.H264.AC3-EVO[EtHD] torrent
I.Will.Make.You.Mine.2020.1080p.WEB-DL.H264.AC3-EVO[EtHD] torrent

ETTV Recommended UHD
2001.A.Space.Odyssey.1968.BDRip.2160p.UHD.HDR.Eng.DTS-HD.MA.ETRG torrent
War.of.the.Worlds.2005.4K.HDR.2160p.BDRip Ita Eng x265-NAHOM torrent
The Blues Brothers 1980.MULTi.UHD.BluRay.2160p.HDR.HEVC.DTS-X.7.1-DDR.mkv torrent
Blade.Runner.1982.The.Final.Cut.BDRip.2160p.UHD.HDR.Eng.TrueHD.ETRG torrent

ETTV Recommended Cam
The Hunt 2020 HDCAM x264 AC3-ETRG torrent
The Burnt Orange Heresy 2020 720p HDCAM-C1NEM4 torrent

ETTV Recommended Foreign
Betaal.S01.2020.UHD.2160p.HDR.WEB-Rip.Atmos.5.1.HEVC-DDR torrent
The.Decline.2020.French.UHD.2160p.HDR.WEBRiP.DDP.5.1.HEVC-DDR[EtHD] torrent
Naukar.Vahuti.Da.2019.720p.AMZN.WEB-DL.DD+5.1.x264-Telly torrent
Rishtey 2002 Hindi 720p AMZN WEBRip x264 AAC 5.1 ESubs - LOKiHD - Telly torrent

Sponsored


Download Torrent "Mard Ko Dard Nahin Hota (2018) Hindi 720p BDRip x264 DD+5.1(224Kbps) 1.4GB ..."

IMDB Details
Description:

It is a story of a young boy Surya who has a rare condition of Congenital Insensitivity to pain meaning he can not feel pain, and he sets out to learn martial arts and hunt down muggers.

Genre:

Action, Comedy

Download Torrent (Magnet)
Download Torrent (File)
Seeds: 1
Leechers: 0
Completed:
Last Checked: 22-05-2020 16:14:16


Details
Title:Mard Ko Dard Nahin Hota (2018) Hindi 720p BDRip x264 DD+5.1(224Kbps) 1.4GB ...
Description:
https://MovCr.to








Mard Ko Dard Nahin Hota (2018) Hindi 720p BDRip x264 DD+5.1(224Kbps) 1.4GB ESubs - MovCr




IMDB Link : https://www.imdb.com/title/tt8055888/

Plot :

It is a story of a young boy Surya who has a rare condition of Congenital Insensitivity to pain meaning he can not feel pain, and he sets out to learn martial arts and hunt down muggers.




Video
ID                                       : 1
Format                                   : AVC
Format/Info                              : Advanced Video Codec
Format profile                           : [email protected]
Format settings                          : CABAC / 4 Ref Frames
Format settings, CABAC                   : Yes
Format settings, Reference frames        : 4 frames
Codec ID                                 : V_MPEG4/ISO/AVC
Duration                                 : 2 h 7 min
Bit rate                                 : 1 374 kb/s
Width                                    : 1 280 pixels
Height                                   : 688 pixels
Display aspect ratio                     : 1.85:1
Frame rate mode                          : Constant
Frame rate                               : 24.000 FPS
Color space                              : YUV
Chroma subsampling                       : 4:2:0
Bit depth                                : 8 bits
Scan type                                : Progressive
Bits/(Pixel*Frame)                       : 0.065
Stream size                              : 1.22 GiB (85%)
Writing library                          : x264 core 157 r2935 545de2f
Encoding settings                        : cabac=1 / ref=3 / deblock=1:0:0 / analyse=0x1:0x111 / me=hex / subme=7 / psy=1 / psy_rd=1.00:0.00 / mixed_ref=1 / me_range=16 / chroma_me=1 / trellis=1 / 8x8dct=0 / cqm=0 / deadzone=21,11 / fast_pskip=1 / chroma_qp_offset=-2 / threads=12 / lookahead_threads=2 / sliced_threads=0 / nr=0 / decimate=1 / interlaced=0 / bluray_compat=0 / constrained_intra=0 / bframes=3 / b_pyramid=2 / b_adapt=1 / b_bias=0 / direct=1 / weightb=1 / open_gop=0 / weightp=2 / keyint=240 / keyint_min=24 / scenecut=40 / intra_refresh=0 / rc_lookahead=40 / rc=2pass / mbtree=1 / bitrate=1374 / ratetol=1.0 / qcomp=0.60 / qpmin=0 / qpmax=69 / qpstep=4 / cplxblur=20.0 / qblur=0.5 / vbv_maxrate=14000 / vbv_bufsize=14000 / nal_hrd=none / filler=0 / ip_ratio=1.40 / aq=1:1.00
Default                                  : Yes
Forced                                   : No
Color range                              : Limited
Color primaries                          : BT.709
Transfer characteristics                 : BT.709
Matrix coefficients                      : BT.709

Audio
ID                                       : 2
Format                                   : E-AC-3
Format/Info                              : Enhanced AC-3
Commercial name                          : Dolby Digital Plus
Codec ID                                 : A_EAC3
Duration                                 : 2 h 7 min
Bit rate mode                            : Constant
Bit rate                                 : 224 kb/s
Channel(s)                               : 6 channels
Channel layout                           : L R C LFE Ls Rs
Sampling rate                            : 48.0 kHz
Frame rate                               : 31.250 FPS (1536 SPF)
Compression mode                         : Lossy
Delay relative to video                  : -5 ms
Stream size                              : 204 MiB (14%)
Title                                    : www.MovCr.to
Language                                 : Hindi
Service kind                             : Complete Main
Default                                  : Yes
Forced                                   : No

Text
ID                                       : 3
Format                                   : PGS
Muxing mode                              : zlib
Codec ID                                 : S_HDMV/PGS
Codec ID/Info                            : Picture based subtitle format used on BDs/HD-DVDs
Duration                                 : 2 h 4 min
Bit rate                                 : 38.9 kb/s
Count of elements                        : 3184
Stream size                              : 34.6 MiB (2%)
Title                                    : www.MovCr.to
Language                                 : English
Default                                  : No
Forced                                   : No

Menu #1
00:00:00.000                             : :Chapter 01
00:10:00.541                             : :Chapter 02
00:19:25.625                             : :Chapter 03
00:33:36.041                             : :Chapter 04
00:43:17.416                             : :Chapter 05
00:52:49.166                             : :Chapter 06
01:03:55.625                             : :Chapter 07
01:12:49.250                             : :Chapter 08
01:23:34.625                             : :Chapter 09
01:36:25.583                             : :Chapter 10
01:45:59.458                             : :Chapter 11
01:54:46.208                             : :Chapter 12

Menu #2
00:00:00.000                             : en:Chapter 1
00:10:00.542                             : en:Chapter 2
00:19:25.625                             : en:Chapter 3
00:33:36.042                             : en:Chapter 4
00:43:17.417                             : en:Chapter 5
00:52:49.167                             : en:Chapter 6
01:03:55.625                             : en:Chapter 7
01:12:49.250                             : en:Chapter 8
01:23:34.625                             : en:Chapter 9
01:36:25.625                             : en:Chapter 10
01:45:59.542                             : en:Chapter 11
01:54:46.375                             : en:Chapter 12













Category:Movies > Bollywood
Lang:Hindi  Hindi
Total Size:1.43 GB
Info Hash:2cd38d88867bad5794390e01270f897aba13e540
Added By:MovCr
Date Added:22-05-2020 16:14:16

  

Files

File List: 
 File Size
www.MovCr.to - Mard Ko Dard Nahin Hota (2018) Hindi 720p BDRip x264 DD+5.1(224Kbps) 1.4GB ESubs - MovCr.mkv1.43 GB



Comments

There are currently no comments. Be the first one to write something !