Birds of Prey (and the Fantabulous Emancipation of One Harley Quinn) 2020 Marvels Agents of S H I E L D S07E01 XXX supergirl Jeffrey Epstein Filthy Rich s01e01 The Lovebirds 2020 What We Do in the Shadows S02E08 mrs america etrg Billions grant aew Marvels Agents of S.H.I.E.L.D. S07E01 Bad Boys for Life 2020 evo Billions S05E04 defending jacob rick and morty yts love life Stargirl s01e02 transplant agents ethd The Wrong Missy 2020 Survive the Night 2020 Rick and Morty S04E09 Raktanchal Barkskins s01e01 Capone 2020 Blindspot Snowpiercer S01E02 killing eve DDR Grant S01E02 nascar legends of tomorrow what we do in the shadows hindi 2160p Killing Eve S03E07 Scoob! 2020 rq.mp4 the walking dead agents of shield outlander ettv Brazzers Best Of Brazzers etmovies snowpiercer WWE  The Real Housewives of Beverly Hills S10E07 Americas Got Talent S15E01 The 100 S07E02 Locke  the flash Inheritance 2020 ddr stargirl American dad Grant S01E01 marvel week hindi 2020 See.S01E04.WEB.x264-PHOENiX[TGx] the 100 DCs Legends of Tomorrow S05E14 0 the good fight DC week 
Warning! Use a VPN When Downloading Torrents!
Your IP Address is 34.204.193.85. Location United States
Your Internet Provider can see when you download torrents! Hide your IP Address with a VPN
ETTV warns: You should use VPN to hide your torrenting. HIDE ME NOW
ETTV Recommended TV Shows
The.100.S07E02.HDTV.x264-SVA[ettv] torrent
Marvels.Agents.of.S.H.I.E.L.D.S07E01.HDTV.x264-SVA[ETTV] torrent
Transplant.S01E13.HDTV.x264-aAF[ettv] torrent
The.Good.Fight.S04E07.720p.WEB.H265.ETRG torrent

ETTV Recommended SD
Ron.Hoppers.Misfortune.2020.AMZN.HDRip.XViD.AC3-juggs torrent
Guest.Of.Honour.2020.HC.HDRip.XviD.AC3-EVO torrent
I.See.You.2019.BRRip.XviD.AC3-EVO torrent
100.Percent.Wolf.2020.HDRip.XviD.AC3-EVO torrent

ETTV Recommended HD
Guest.Of.Honour.2020.HC.1080p.WEBRip.X264.DD.5.1-EVO[EtHD] torrent
Intuition.2020.1080p.WEB-DL.DDP5.1.H264-CMRG[EtHD] torrent
Capone 2020 BluRay 1080p DTSHD 5.1 x264-LEGi0N[EtHD] torrent
100.Percent.Wolf.2020.1080p.WEB-DL.H264.AC3-EVO[EtHD] torrent

ETTV Recommended UHD
The.Wrong.Missy.2020.UHD.MULTI.2160p.HDR.WEBRip.DDP.5.1.HEVC-DDR[EtHD] torrent
Queen & Slim (2019) [BluRay Rip 2160p HEVC 10bit-HDR ITA-ENG DTS-AC3-SUBS] [M@HD] torrent
1917.2019.HDR10Plus.2160p.UHD.BluRay.x265.iNTERNAL-JustWatch.ETRG torrent
Dolittle.2020.HDR10Plus.2160p.UHD.BluRay.x265.iNTERNAL-JustWatch.ETRG torrent

ETTV Recommended Cam
The Hunt 2020 HDCAM x264 AC3-ETRG torrent
The Burnt Orange Heresy 2020 720p HDCAM-C1NEM4 torrent

ETTV Recommended Foreign
After(2019) HDRip 720p [Hindi-Dub] Dual-Audio x264 - 1XCinema torrent
Door.Ke.Darshan.2020.1080p.S.M.WEB-DL.AAC.2.0.H.264-Telly torrent
Ponmagal.Vandhal.2020.1080p.AMZN.WEB-DL.DD+5.1.x265-Telly torrent
Allagash (2020) HDRip 720p [Hindi-Dub] Dual-Audio x264 - 1XCinema torrent

Sponsored


Download Torrent "Vagrant Queen (2020) S01E08 No Clue (1080p AMZN Webrip x265 10bit EAC3 5.1 ..."

IMDB Details
Description:

This follows Elida from child queen to orphaned outcast, as she scavenges the treacherous corners of the galaxy, always one step ahead of the Republic government out to extinguish her ...

Genre:

Adventure, Sci-Fi

Download Torrent (Magnet)
Download Torrent (File)
Seeds: 9
Leechers: 0
Completed:
Last Checked: 22-05-2020 16:10:36


Details
Title:Vagrant Queen (2020) S01E08 No Clue (1080p AMZN Webrip x265 10bit EAC3 5.1 ...
Description:

Media Information

General
Unique ID                                : 120258056483811382437746786811649659381 (0x5A78DBF4C45BB366444FCF1DBAC711F5)
Complete name                            : Vagrant Queen (2020) S01E08 No Clue (1080p AMZN Webrip x265 10bit EAC3 5.1 - Goki)[TAoE].mkv
Format                                   : Matroska
Format version                           : Version 4
File size                                : 1.53 GiB
Duration                                 : 43 min 6 s
Overall bit rate                         : 5 091 kb/s
Movie name                               : Vagrant Queen (2020) S01E08 No Clue (1080p AMZN Webrip x265 10bit EAC3 5.1 - Goki)[TAoE].mkv
Writing application                      : Lavf58.29.100
Writing library                          : Lavf58.29.100
ErrorDetectionType                       : Per level 1

Video
ID                                       : 1
Format                                   : HEVC
Format/Info                              : High Efficiency Video Coding
Format profile                           : Main [email protected]@Main
Codec ID                                 : V_MPEGH/ISO/HEVC
Duration                                 : 43 min 6 s
Bit rate                                 : 4 447 kb/s
Width                                    : 1 920 pixels
Height                                   : 1 080 pixels
Display aspect ratio                     : 16:9
Frame rate mode                          : Constant
Frame rate                               : 23.976 (24000/1001) FPS
Color space                              : YUV
Chroma subsampling                       : 4:2:0
Bit depth                                : 10 bits
Bits/(Pixel*Frame)                       : 0.089
Stream size                              : 1.34 GiB (87%)
Title                                    : Encoded by Goki for TAoE using Hiru V1.2
Writing library                          : x265 3.2+35-acc5d16999e2:[Windows][GCC 9.2.1][64 bit] 10bit
Encoding settings                        : cpuid=1111039 / frame-threads=4 / numa-pools=24 / wpp / no-pmode / no-pme / no-psnr / no-ssim / log-level=2 / input-csp=1 / input-res=1920x1080 / interlace=0 / total-frames=0 / level-idc=0 / high-tier=1 / uhd-bd=0 / ref=4 / no-allow-non-conformance / no-repeat-headers / annexb / no-aud / no-hrd / info / hash=0 / no-temporal-layers / open-gop / min-keyint=23 / keyint=250 / gop-lookahead=0 / bframes=8 / b-adapt=2 / b-pyramid / bframe-bias=0 / rc-lookahead=80 / lookahead-slices=4 / scenecut=40 / hist-scenecut=0 / radl=0 / no-splice / no-intra-refresh / ctu=64 / min-cu-size=8 / no-rect / no-amp / max-tu-size=32 / tu-inter-depth=1 / tu-intra-depth=1 / limit-tu=0 / rdoq-level=2 / dynamic-rd=0.00 / no-ssim-rd / signhide / no-tskip / nr-intra=0 / nr-inter=0 / no-constrained-intra / no-strong-intra-smoothing / max-merge=3 / limit-refs=3 / limit-modes / me=3 / subme=5 / merange=57 / temporal-mvp / no-frame-dup / no-hme / weightp / no-weightb / no-analyze-src-pics / deblock=0:0 / sao / no-sao-non-deblock / rd=4 / selective-sao=4 / no-early-skip / rskip / no-fast-intra / no-tskip-fast / no-cu-lossless / no-b-intra / no-splitrd-skip / rdpenalty=0 / psy-rd=1.30 / psy-rdoq=2.00 / no-rd-refine / no-lossless / cbqpoffs=0 / crqpoffs=0 / rc=crf / crf=19.5 / qcomp=0.60 / qpstep=4 / stats-write=0 / stats-read=0 / ipratio=1.40 / pbratio=1.30 / aq-mode=4 / aq-strength=1.10 / cutree / zone-count=0 / no-strict-cbr / qg-size=32 / no-rc-grain / qpmax=69 / qpmin=0 / no-const-vbv / sar=1 / overscan=0 / videoformat=5 / range=0 / colorprim=2 / transfer=2 / colormatrix=2 / chromaloc=0 / display-window=0 / cll=0,0 / min-luma=0 / max-luma=1023 / log2-max-poc-lsb=8 / vui-timing-info / vui-hrd-info / slices=1 / no-opt-qp-pps / no-opt-ref-list-length-pps / no-multi-pass-opt-rps / scenecut-bias=0.05 / hist-threshold=0.01 / no-opt-cu-delta-qp / no-aq-motion / no-hdr10 / no-hdr10-opt / no-dhdr10-opt / no-idr-recovery-sei / analysis-reuse-level=0 / analysis-save-reuse-level=0 / analysis-load-reuse-level=0 / scale-factor=0 / refine-intra=0 / refine-inter=0 / refine-mv=1 / refine-ctu-distortion=0 / no-limit-sao / ctu-info=0 / no-lowpass-dct / refine-analysis-type=0 / copy-pic=1 / max-ausize-factor=1.0 / no-dynamic-refine / no-single-sei / no-hevc-aq / no-svt / no-field / qp-adaptation-range=1.00 / no-scenecut-aware-qpconformance-window-offsets / right=0 / bottom=0
Default                                  : Yes
Forced                                   : No
Color range                              : Limited

Audio
ID                                       : 2
Format                                   : E-AC-3
Format/Info                              : Enhanced AC-3
Commercial name                          : Dolby Digital Plus
Codec ID                                 : A_EAC3
Duration                                 : 43 min 6 s
Bit rate mode                            : Constant
Bit rate                                 : 640 kb/s
Channel(s)                               : 6 channels
Channel layout                           : L R C LFE Ls Rs
Sampling rate                            : 48.0 kHz
Frame rate                               : 31.250 FPS (1536 SPF)
Bit depth                                : 32 bits
Compression mode                         : Lossy
Stream size                              : 197 MiB (13%)
Language                                 : English
Service kind                             : Complete Main
Default                                  : Yes
Forced                                   : No

Text
ID                                       : 3
Format                                   : UTF-8
Codec ID                                 : S_TEXT/UTF8
Codec ID/Info                            : UTF-8 Plain Text
Duration                                 : 43 min 3 s
Bit rate                                 : 83 b/s
Count of elements                        : 927
Stream size                              : 26.3 KiB (0%)
Title                                    : SDH
Language                                 : English
Default                                  : No
Forced                                   : No

Source
1080p AMZN WEB-DL CasStudio
116297581489518267237732440717478139444 (0x577E19768A975F7A8439CC4D06C51634)

Hello everyone,
We are TAoE, a small team of passionate encoders who love encoding. We try our best to provide you with high quality releases.

Requests for movies and shows are welcome.
We have a form for encode requests which can be found here
Encode requests form
submit your request and it will be added to our encoding request list
You can view our encoding request list here
Encode requests list


When or if we encode it will depend on if we can obtain a good source to encode with and
if one of the TAoE encoders chooses to encode it. Unfortunately we are not able to encode everything,
new members are welcome as that helps us encode more content!

If you would like to join TAoE submit your request here!
TAoE member applications form





.........................................................................................................................................

Category:TV > HEVC/x265
Lang:English  English
Total Size:1.53 GB
Info Hash:aad0678976a27134e47700ca6592e78114cbfa73
Added By:Goki
Date Added:22-05-2020 16:10:31

Files

File List: 
 File Size
Vagrant Queen (2020) S01E08 No Clue (1080p AMZN Webrip x265 10bit EAC3 5.1 - Goki)[TAoE].mkv1.53 GB



Comments

There are currently no comments. Be the first one to write something !