Becky 2020 locke and key s01e06 Blindspot Harley Quinn s02e10 Rick and Morty S04E10 The 100 S07E03 etrg The Walking Dead  The Hunt 2020 dc week SEAL Team Jersey Shore Family Vacation s03e27 Marvels Agents of S.H.I.E.L.D. S07E02 ethd BILLIONS rq.mp4 alex rider Chicago Fire The Last Days of American Crime 2020 13 Reasons Why Season 4 WWE Bering Sea Gold S12E05 Greys Anatomy ita evo Space Force s01e02 Survive the Night 2020 ddr harley quinn Gangs of London S01E07 Marvel Week The Blackout Invasion Earth 2019 killing eve in the dark Birds of Prey (and the Fantabulous Emancipation of One Harley Quinn) 2020 13 Reasons Why S04 XXX game of thrones Last Week Tonight 0 ufc 2160p The Gentlemen 2020 what we do in the shadows ettv Chicago PD Rick and Morty etmovies snowpiercer yts Brazzers Best Of Brazzers Scoob! 2020 love life The Invisible Man 2020 Blindspot S05E04 stargirl Hindi  Real Time with Bill Maher S18E17 Choked the 100 13 Reasons Why Space Force S01E01 Westworld Alex Rider S01E01 legends of tomorrow YTS Bad Boys for Life 2020 Chicago Med hindi 2020 
Warning! Use a VPN When Downloading Torrents!
Your IP Address is 18.206.187.81. Location United States
Your Internet Provider can see when you download torrents! Hide your IP Address with a VPN
ETTV warns: You should use VPN to hide your torrenting. HIDE ME NOW
ETTV Recommended TV Shows
In.the.Dark.2019.S02E08.HDTV.x264-SVA[ettv] torrent
Blindspot.S05E04.HDTV.x264-SVA[ettv] torrent
WWE Friday Night SmackDown 2020 06 05 HDTV x264-NWCHD [TJET] torrent
Hightown.S01E04.WEB.H264-BTX[ettv] torrent

ETTV Recommended SD
Sniper Assassins End.2020.BDRip.x264.AC3-EVO.ETRG torrent
Hammer.2020.1080p.WEBRip.X264.DD.5.1-EVO.ETRG torrent
Three.Christs.2020.BDRip.x264.AC3-EVO.ETRG torrent
Dating.Amber.2020.1080p.AMZN.WEBRip.X264.DD.5.1-EVO.ETRG torrent

ETTV Recommended HD
Shutter.Island.2010.BRRip.1080p.HEVC.HDR.Eng.DD5.1.ETRG torrent
Dating.Amber.2020.1080p.AMZN.WEBRip.X264.DD.5.1-EVO[EtHD] torrent
Annabellum.The.Curse.of.Salem.2019.1080p.WEB-DL.AAC2.0.H.264-CMRG[EtHD] torrent
Alien.1979.Theatrical.BRRip.1080p.HEVC.HDR.Multi.DD5.1.ETRG torrent

ETTV Recommended UHD
Suicide.Squad.Hell.to.Pay.2018.MULTi.UHD.BluRay.2160p.HDR.DTS-HDMA.5.1.HEVC-DDR.mkv torrent
Shutter.Island.2010.BDRip.2160p.UHD.HDR.Eng.DTS-HD.MA.ETRG torrent
Birds of Prey (e la fantasmagorica rinascita di Harley Quinn) (2020) [BluRay Rip 2160p HEVC 10bit-HDR ITA-ENG DTS-AC3-SUBS] [M@HD] torrent
Alien.1979.Theatrical.BDRip.2160p.UHD.HDR.Multi.DTS-HD.MA.ETRG torrent

ETTV Recommended Cam
The Hunt 2020 HDCAM x264 AC3-ETRG torrent
The Burnt Orange Heresy 2020 720p HDCAM-C1NEM4 torrent

ETTV Recommended Foreign
Sarileru Neekevvaru (2020) [TELUGU - 720p - WEB HDRip - x264 - DD 5.1 - MSub - 2GB] - MAZE torrent
Murder Manual (2020) HDRip 720p [Hindi-Sub] x264 - 1XCinema torrent
Le.Boucher.1970.(Claude.Chabrol-Thriller).720p.x264-Classics torrent
Bheeshma (2020) [TELUGU - 720p - WEB HDRip - x264 - DD 5.1 - MSub - 2GB] - MAZE torrent
Forensic.2020.1080p.NF.WEB-DL.DDP5.1.x264-Telly torrent
Garbh 2017 Marathi 1080p Web-DL x264 AAC [TMB] torrent

Sponsored


Download Torrent "Disney Gallery - Star Wars - The Mandalorian (2020) S01E04 Technology (108..."

IMDB Details
Description:

N/A

Genre:

N/A

Download Torrent (Magnet)
Download Torrent (File)
Seeds: 6
Leechers: 0
Completed:
Last Checked: 22-05-2020 15:30:16


Details
Title:Disney Gallery - Star Wars - The Mandalorian (2020) S01E04 Technology (108...
Description:

Media Information

General
Unique ID                                : 338939764624482625557482027962056712375 (0xFEFD6C9897D28EEF9D9CAA9C056620B7)
Complete name                            : Disney Gallery - Star Wars - The Mandalorian  (2020) S01E04 Technology (1080p DSNYP Webrip x265 10bit EAC3 5.1 - Goki)[TAoE].mkv
Format                                   : Matroska
Format version                           : Version 4
File size                                : 627 MiB
Duration                                 : 27 min 3 s
Overall bit rate                         : 3 237 kb/s
Movie name                               : Disney Gallery - Star Wars - The Mandalorian  (2020) S01E04 Technology (1080p DSNYP Webrip x265 10bit EAC3 5.1 - Goki)[TAoE].mkv
Writing application                      : Lavf58.29.100
Writing library                          : Lavf58.29.100
ErrorDetectionType                       : Per level 1

Video
ID                                       : 1
Format                                   : HEVC
Format/Info                              : High Efficiency Video Coding
Format profile                           : Main [email protected]@Main
Codec ID                                 : V_MPEGH/ISO/HEVC
Duration                                 : 27 min 3 s
Bit rate                                 : 2 976 kb/s
Width                                    : 1 920 pixels
Height                                   : 1 080 pixels
Display aspect ratio                     : 16:9
Frame rate mode                          : Constant
Frame rate                               : 23.976 (24000/1001) FPS
Color space                              : YUV
Chroma subsampling                       : 4:2:0
Bit depth                                : 10 bits
Bits/(Pixel*Frame)                       : 0.060
Stream size                              : 576 MiB (92%)
Title                                    : Encoded by Goki for TAoE using Hiru V1.2
Writing library                          : x265 3.2+35-acc5d16999e2:[Windows][GCC 9.2.1][64 bit] 10bit
Encoding settings                        : cpuid=1111039 / frame-threads=4 / numa-pools=24 / wpp / no-pmode / no-pme / no-psnr / no-ssim / log-level=2 / input-csp=1 / input-res=1920x1080 / interlace=0 / total-frames=0 / level-idc=0 / high-tier=1 / uhd-bd=0 / ref=4 / no-allow-non-conformance / no-repeat-headers / annexb / no-aud / no-hrd / info / hash=0 / no-temporal-layers / open-gop / min-keyint=23 / keyint=250 / gop-lookahead=0 / bframes=8 / b-adapt=2 / b-pyramid / bframe-bias=0 / rc-lookahead=80 / lookahead-slices=4 / scenecut=40 / hist-scenecut=0 / radl=0 / no-splice / no-intra-refresh / ctu=64 / min-cu-size=8 / no-rect / no-amp / max-tu-size=32 / tu-inter-depth=1 / tu-intra-depth=1 / limit-tu=0 / rdoq-level=2 / dynamic-rd=0.00 / no-ssim-rd / signhide / no-tskip / nr-intra=0 / nr-inter=0 / no-constrained-intra / no-strong-intra-smoothing / max-merge=3 / limit-refs=3 / limit-modes / me=3 / subme=5 / merange=57 / temporal-mvp / no-frame-dup / no-hme / weightp / no-weightb / no-analyze-src-pics / deblock=0:0 / sao / no-sao-non-deblock / rd=4 / selective-sao=4 / no-early-skip / rskip / no-fast-intra / no-tskip-fast / no-cu-lossless / no-b-intra / no-splitrd-skip / rdpenalty=0 / psy-rd=1.30 / psy-rdoq=2.00 / no-rd-refine / no-lossless / cbqpoffs=0 / crqpoffs=0 / rc=crf / crf=20.0 / qcomp=0.60 / qpstep=4 / stats-write=0 / stats-read=0 / ipratio=1.40 / pbratio=1.30 / aq-mode=4 / aq-strength=1.10 / cutree / zone-count=0 / no-strict-cbr / qg-size=32 / no-rc-grain / qpmax=69 / qpmin=0 / no-const-vbv / sar=1 / overscan=0 / videoformat=5 / range=0 / colorprim=2 / transfer=2 / colormatrix=2 / chromaloc=0 / display-window=0 / cll=0,0 / min-luma=0 / max-luma=1023 / log2-max-poc-lsb=8 / vui-timing-info / vui-hrd-info / slices=1 / no-opt-qp-pps / no-opt-ref-list-length-pps / no-multi-pass-opt-rps / scenecut-bias=0.05 / hist-threshold=0.01 / no-opt-cu-delta-qp / no-aq-motion / no-hdr10 / no-hdr10-opt / no-dhdr10-opt / no-idr-recovery-sei / analysis-reuse-level=0 / analysis-save-reuse-level=0 / analysis-load-reuse-level=0 / scale-factor=0 / refine-intra=0 / refine-inter=0 / refine-mv=1 / refine-ctu-distortion=0 / no-limit-sao / ctu-info=0 / no-lowpass-dct / refine-analysis-type=0 / copy-pic=1 / max-ausize-factor=1.0 / no-dynamic-refine / no-single-sei / no-hevc-aq / no-svt / no-field / qp-adaptation-range=1.00 / no-scenecut-aware-qpconformance-window-offsets / right=0 / bottom=0
Default                                  : Yes
Forced                                   : No
Color range                              : Limited

Audio
ID                                       : 2
Format                                   : E-AC-3
Format/Info                              : Enhanced AC-3
Commercial name                          : Dolby Digital Plus
Codec ID                                 : A_EAC3
Duration                                 : 27 min 3 s
Bit rate mode                            : Constant
Bit rate                                 : 256 kb/s
Channel(s)                               : 6 channels
Channel layout                           : L R C LFE Ls Rs
Sampling rate                            : 48.0 kHz
Frame rate                               : 31.250 FPS (1536 SPF)
Bit depth                                : 32 bits
Compression mode                         : Lossy
Stream size                              : 49.5 MiB (8%)
Language                                 : English
Service kind                             : Complete Main
Default                                  : Yes
Forced                                   : No

Text #1
ID                                       : 3
Format                                   : UTF-8
Codec ID                                 : S_TEXT/UTF8
Codec ID/Info                            : UTF-8 Plain Text
Duration                                 : 26 min 6 s
Bit rate                                 : 125 b/s
Count of elements                        : 490
Stream size                              : 23.9 KiB (0%)
Title                                    : English
Language                                 : English
Default                                  : No
Forced                                   : No

Text #2
ID                                       : 4
Format                                   : UTF-8
Codec ID                                 : S_TEXT/UTF8
Codec ID/Info                            : UTF-8 Plain Text
Duration                                 : 26 min 51 s
Bit rate                                 : 93 b/s
Count of elements                        : 366
Stream size                              : 18.4 KiB (0%)
Title                                    : Danish
Language                                 : Danish
Default                                  : No
Forced                                   : No

Text #3
ID                                       : 5
Format                                   : UTF-8
Codec ID                                 : S_TEXT/UTF8
Codec ID/Info                            : UTF-8 Plain Text
Duration                                 : 26 min 51 s
Bit rate                                 : 104 b/s
Count of elements                        : 422
Stream size                              : 20.5 KiB (0%)
Title                                    : Dutch
Language                                 : Dutch
Default                                  : No
Forced                                   : No

Text #4
ID                                       : 6
Format                                   : UTF-8
Codec ID                                 : S_TEXT/UTF8
Codec ID/Info                            : UTF-8 Plain Text
Duration                                 : 26 min 51 s
Bit rate                                 : 87 b/s
Count of elements                        : 516
Stream size                              : 17.2 KiB (0%)
Title                                    : Finnish
Language                                 : Finnish
Default                                  : No
Forced                                   : No

Text #5
ID                                       : 7
Format                                   : UTF-8
Codec ID                                 : S_TEXT/UTF8
Codec ID/Info                            : UTF-8 Plain Text
Duration                                 : 26 min 51 s
Bit rate                                 : 91 b/s
Count of elements                        : 528
Stream size                              : 18.0 KiB (0%)
Title                                    : French
Language                                 : French
Default                                  : No
Forced                                   : No

Text #6
ID                                       : 8
Format                                   : UTF-8
Codec ID                                 : S_TEXT/UTF8
Codec ID/Info                            : UTF-8 Plain Text
Duration                                 : 26 min 51 s
Bit rate                                 : 98 b/s
Count of elements                        : 487
Stream size                              : 19.5 KiB (0%)
Title                                    : German
Language                                 : German
Default                                  : No
Forced                                   : No

Text #7
ID                                       : 9
Format                                   : UTF-8
Codec ID                                 : S_TEXT/UTF8
Codec ID/Info                            : UTF-8 Plain Text
Duration                                 : 26 min 51 s
Bit rate                                 : 103 b/s
Count of elements                        : 517
Stream size                              : 20.5 KiB (0%)
Title                                    : Italian
Language                                 : Italian
Default                                  : No
Forced                                   : No

Text #8
ID                                       : 10
Format                                   : UTF-8
Codec ID                                 : S_TEXT/UTF8
Codec ID/Info                            : UTF-8 Plain Text
Duration                                 : 26 min 51 s
Bit rate                                 : 96 b/s
Count of elements                        : 516
Stream size                              : 19.0 KiB (0%)
Title                                    : Norwegian
Language                                 : Norwegian
Default                                  : No
Forced                                   : No

Text #9
ID                                       : 11
Format                                   : UTF-8
Codec ID                                 : S_TEXT/UTF8
Codec ID/Info                            : UTF-8 Plain Text
Duration                                 : 26 min 51 s
Bit rate                                 : 101 b/s
Count of elements                        : 517
Stream size                              : 20.0 KiB (0%)
Title                                    : Polish
Language                                 : Polish
Default                                  : No
Forced                                   : No

Text #10
ID                                       : 12
Format                                   : UTF-8
Codec ID                                 : S_TEXT/UTF8
Codec ID/Info                            : UTF-8 Plain Text
Duration                                 : 26 min 51 s
Bit rate                                 : 111 b/s
Count of elements                        : 516
Stream size                              : 21.9 KiB (0%)
Title                                    : Portuguese
Language                                 : Portuguese
Default                                  : No
Forced                                   : No

Text #11
ID                                       : 13
Format                                   : UTF-8
Codec ID                                 : S_TEXT/UTF8
Codec ID/Info                            : UTF-8 Plain Text
Duration                                 : 26 min 51 s
Bit rate                                 : 105 b/s
Count of elements                        : 517
Stream size                              : 20.7 KiB (0%)
Title                                    : Brazilian Portuguese
Language                                 : Portuguese
Default                                  : No
Forced                                   : No

Text #12
ID                                       : 14
Format                                   : UTF-8
Codec ID                                 : S_TEXT/UTF8
Codec ID/Info                            : UTF-8 Plain Text
Duration                                 : 26 min 51 s
Bit rate                                 : 99 b/s
Count of elements                        : 515
Stream size                              : 19.6 KiB (0%)
Title                                    : Latin America Spanish
Language                                 : Spanish
Default                                  : No
Forced                                   : No

Text #13
ID                                       : 15
Format                                   : UTF-8
Codec ID                                 : S_TEXT/UTF8
Codec ID/Info                            : UTF-8 Plain Text
Duration                                 : 26 min 51 s
Bit rate                                 : 94 b/s
Count of elements                        : 517
Stream size                              : 18.5 KiB (0%)
Title                                    : European Spanish
Language                                 : Spanish
Default                                  : No
Forced                                   : No

Text #14
ID                                       : 16
Format                                   : UTF-8
Codec ID                                 : S_TEXT/UTF8
Codec ID/Info                            : UTF-8 Plain Text
Duration                                 : 26 min 51 s
Bit rate                                 : 90 b/s
Count of elements                        : 318
Stream size                              : 17.9 KiB (0%)
Title                                    : Swedish
Language                                 : Swedish
Default                                  : No
Forced                                   : No

Source
1080p DSNYP WEB-DL GHOSTS
128037803504772829774381605605265637558 (0x60532F19345E2EDA817243EFBAA000B6)

Hello everyone,
We are TAoE, a small team of passionate encoders who love encoding. We try our best to provide you with high quality releases.

Requests for movies and shows are welcome.
We have a form for encode requests which can be found here
Encode requests form
submit your request and it will be added to our encoding request list
You can view our encoding request list here
Encode requests list


When or if we encode it will depend on if we can obtain a good source to encode with and
if one of the TAoE encoders chooses to encode it. Unfortunately we are not able to encode everything,
new members are welcome as that helps us encode more content!

If you would like to join TAoE submit your request here!
TAoE member applications form





.........................................................................................................................................


Category:TV > HEVC/x265
Lang:English  English
Total Size:627 MB
Info Hash:f802ec4716a0a348b580a33435d406ff45ef1891
Added By:Goki
Date Added:22-05-2020 15:30:11

Files

File List: 
 File Size
Disney Gallery - Star Wars - The Mandalorian (2020) S01E04 Technology (1080p DSNYP Webrip x265 10bit EAC3 5.1 - Goki)[TAoE].mkv627 MB



Comments

There are currently no comments. Be the first one to write something !