Survive the Night 2020 Space Force S01E01 Marvel Week Brazzers Best Of Brazzers game of thrones  13 Reasons Why Season 4 WWE  legends of tomorrow SEAL Team Blindspot evo choked yts Alex Rider S01E01 Chicago Med Greys Anatomy baki agents of shield Americas Got Talent S15E02 Last Week Tonight snowpiercer etrg Man With a Plan S04E12 Gangs of London S01E07 killing eve  The Real Housewives of Beverly Hills S10E08 Billions S05E05 Deadliest Catch S16E08 ettv 2160p stargirl The Challenge S35E10 rq.mp4 Scoob! 2020 XXX The Hunt 2020 Space Force s01e02 Love life hindi Rick and Morty Billions westworld The Blackout Invasion Earth 2019 DCs Legends of Tomorrow S05E15 13 reasons why Rick and Morty S04E10 what we do in the shadows locke and key s01e06 minx ita what we do in the shadows S02e09 13 reasons why s04 ddr The 100 S07E03 0 the challenge dc week The 100 Jersey Shore Family Vacation S03E27 Chicago Fire hindi 2020 Marvels Agents of S.H.I.E.L.D. S07E02 etmovies Blindspot S05E04 harley quinn alex rider AEW ethd 
Warning! Use a VPN When Downloading Torrents!
Your IP Address is 34.204.176.125. Location United States
Your Internet Provider can see when you download torrents! Hide your IP Address with a VPN
ETTV warns: You should use VPN to hide your torrenting. HIDE ME NOW
ETTV Recommended TV Shows
The.100.S07E03.WEB.H264-ALiGN[ettv] torrent
Man.With.a.Plan.S04E12.720p.x265.ETRG torrent
In.the.Dark.2019.S02E08.HDTV.x264-SVA[ettv] torrent
Blindspot.S05E04.HDTV.x264-SVA[ettv] torrent

ETTV Recommended SD
Equal.Standard.2020.HDRip.XviD.AC3-EVO torrent
They.Reach.2020.BRRip.XviD.AC3-EVO torrent
Acrylic.2020.HDRip.XviD.AC3-EVO torrent
Think.Like.a.Dog.2020.BDRip.XviD.AC3-EVO torrent

ETTV Recommended HD
Becky.2020.1080p.WEB-DL.H264.AC3-EVO[EtHD] torrent
The.Deeper.You.Dig.2019.1080p.WEB-DL.H264.AC3-EVO[EtHD] torrent
The.Last.Days.of.American.Crime.2020.NF.WEB-DL.DDP2.0.x264-CMRG[EtHD] torrent
Shutter.Island.2010.BRRip.1080p.HEVC.HDR.Eng.DD5.1.ETRG torrent

ETTV Recommended UHD
Last.Flag.Flying.2017.UHD.2160p.HDR.WebRip.DDP.5.1.HEVC-DDR.mkv torrent
Suicide.Squad.Hell.to.Pay.2018.MULTi.UHD.BluRay.2160p.HDR.DTS-HDMA.5.1.HEVC-DDR.mkv torrent
The.Shining.1980.BDRip.2160p.UHD.HDR.Eng.DTS-HD.MA.ETRG torrent
Shutter.Island.2010.BDRip.2160p.UHD.HDR.Eng.DTS-HD.MA.ETRG torrent

ETTV Recommended Cam
The Hunt 2020 HDCAM x264 AC3-ETRG torrent
The Burnt Orange Heresy 2020 720p HDCAM-C1NEM4 torrent

ETTV Recommended Foreign
Chintu.Ka.Birthday.2020.1080p.ZEE5.WEB-DL.AAC.2.0.H.264-Telly torrent
Devdas (2002) Hindi (2160p Upscaled WEBRip x265 HEVC 10bit DDP 5.1 ESub) - [Musafirboy] torrent
Choked.Paisa.Bolta.Hai.2020.1080p.NF.WEB-DL.DDP5.1.x264-Telly torrent
Aani Kay Hava 2019 Season 1 Marathi 1080p Web-DL x264 AAC [TMB] torrent
Guardiani dei mondi (2018) [BluRay Rip 1080p ITA-RUS DTS-AC3 SUBS] [M@HD] torrent
Motel Acacia (2019) HDRip 720p [Hindi-Dub] Dual-Audio x264 - 1XCinema torrent

Sponsored


Download Torrent "Star Trek Trilogy (2009-2016) BluRay 1080p 10bit HEVC [Hindi Org DDP 5.1 - ..."

IMDB Details
Description:

N/A

Genre:

N/A

Download Torrent (Magnet)
Download Torrent (File)
Seeds: 8
Leechers: 0
Completed:
Last Checked: 22-05-2020 15:11:50


Details
Title:Star Trek Trilogy (2009-2016) BluRay 1080p 10bit HEVC [Hindi Org DDP 5.1 - ...
Description:





Star Trek Trilogy (2009-2016) BluRay 1080p 10bit HEVC [Hindi Org DDP 5.1 - English AAC 5.1] x265 -RONIN

Source :- 
Star.Trek.2009.Blu-Ray.1080p.AVC.ReMuX.TrueHD.5.1-PriMeHD
Star Trek Into Darkness[IMAX Edition].iso
Star.Trek.Beyond.2016.1080p.BluRay.REMUX.AVC.TrueHD.7.1.Atmos-KRaLiMaRKo




1. Star Trek (2009) BluRay 1080p 10bit HEVC [Hindi Org DDP 5.1 - English AAC 5.1] x265 -RONIN

Media Info:-
General
Unique ID                                : 221465159386256621092389096865055713248 (0xA69CA361BBD5A88BE5AF47054AED27E0)
Complete name                            : 1. Star Trek (2009) BluRay 1080p 10bit HEVC [Hindi Org DDP 5.1 - English AAC 5.1] x265 -RONIN.mkv
Format                                   : Matroska
Format version                           : Version 4
File size                                : 2.73 GiB
Duration                                 : 2 h 6 min
Overall bit rate                         : 3 083 kb/s
Movie name                               : Star Trek (2009) BluRay 1080p 10bit HEVC [Hindi Org DDP 5.1 - English AAC 5.1] x265 -RONIN
Encoded date                             : UTC 2020-05-22 06:53:53
Writing application                      : mkvmerge v46.0.0 ('No Deeper Escape') 64-bit
Writing library                          : libebml v1.3.10 + libmatroska v1.5.2
Cover                                    : Yes
Attachments                              : cover.jpg

Video
ID                                       : 1
Format                                   : HEVC
Format/Info                              : High Efficiency Video Coding
Format profile                           : Main [email protected]@High
Codec ID                                 : V_MPEGH/ISO/HEVC
Duration                                 : 2 h 6 min
Bit rate                                 : 2 219 kb/s
Width                                    : 1 920 pixels
Height                                   : 800 pixels
Display aspect ratio                     : 2.40:1
Frame rate mode                          : Constant
Frame rate                               : 23.976 (24000/1001) FPS
Color space                              : YUV
Chroma subsampling                       : 4:2:0
Bit depth                                : 10 bits
Bits/(Pixel*Frame)                       : 0.060
Stream size                              : 1.97 GiB (72%)
Title                                    : Star Trek (2009) BluRay 1080p 10bit HEVC [Hindi Org DDP 5.1 - English AAC 5.1] x265 -RONIN
Writing library                          : x265 3.3+2-gbe2d82093:[Windows][GCC 9.2.0][64 bit] 10bit
Encoding settings                        : cpuid=1111039 / frame-threads=5 / numa-pools=16 / wpp / no-pmode / no-pme / no-psnr / no-ssim / log-level=2 / input-csp=1 / input-res=1920x800 / interlace=0 / total-frames=182464 / level-idc=40 / high-tier=1 / uhd-bd=0 / ref=5 / no-allow-non-conformance / repeat-headers / annexb / aud / hrd / info / hash=0 / no-temporal-layers / no-open-gop / min-keyint=24 / keyint=240 / gop-lookahead=0 / bframes=4 / b-adapt=2 / b-pyramid / bframe-bias=0 / rc-lookahead=25 / lookahead-slices=4 / scenecut=40 / hist-scenecut=0 / radl=0 / no-splice / no-intra-refresh / ctu=64 / min-cu-size=8 / no-rect / no-amp / max-tu-size=32 / tu-inter-depth=1 / tu-intra-depth=1 / limit-tu=0 / rdoq-level=2 / dynamic-rd=0.00 / no-ssim-rd / signhide / no-tskip / nr-intra=0 / nr-inter=0 / no-constrained-intra / no-strong-intra-smoothing / max-merge=3 / limit-refs=1 / limit-modes / me=1 / subme=3 / merange=35 / temporal-mvp / no-frame-dup / no-hme / weightp / weightb / no-analyze-src-pics / deblock=-1:-1 / no-sao / no-sao-non-deblock / rd=4 / selective-sao=0 / early-skip / rskip / no-fast-intra / no-tskip-fast / no-cu-lossless / b-intra / no-splitrd-skip / rdpenalty=0 / psy-rd=2.00 / psy-rdoq=0.00 / no-rd-refine / no-lossless / cbqpoffs=0 / crqpoffs=0 / rc=crf / crf=22.0 / qcomp=0.60 / qpstep=4 / stats-write=0 / stats-read=0 / vbv-maxrate=20000 / vbv-bufsize=19500 / vbv-init=0.9 / crf-max=0.0 / crf-min=0.0 / ipratio=1.40 / pbratio=1.30 / aq-mode=3 / aq-strength=1.00 / cutree / zone-count=0 / no-strict-cbr / qg-size=32 / no-rc-grain / qpmax=69 / qpmin=0 / no-const-vbv / sar=0 / overscan=0 / videoformat=5 / range=0 / colorprim=2 / transfer=2 / colormatrix=2 / chromaloc=0 / display-window=0 / cll=0,0 / min-luma=0 / max-luma=1023 / log2-max-poc-lsb=8 / vui-timing-info / vui-hrd-info / slices=1 / no-opt-qp-pps / no-opt-ref-list-length-pps / multi-pass-opt-rps / scenecut-bias=0.00 / hist-threshold=0.01 / no-opt-cu-delta-qp / no-aq-motion / no-hdr10 / no-hdr10-opt / no-dhdr10-opt / no-idr-recovery-sei / analysis-reuse-level=0 / analysis-save-reuse-level=0 / analysis-load-reuse-level=0 / scale-factor=0 / refine-intra=0 / refine-inter=0 / refine-mv=1 / refine-ctu-distortion=0 / no-limit-sao / ctu-info=0 / no-lowpass-dct / refine-analysis-type=0 / copy-pic=1 / max-ausize-factor=1.0 / no-dynamic-refine / no-single-sei / no-hevc-aq / no-svt / no-field / qp-adaptation-range=1.00 / no-scenecut-aware-qpconformance-window-offsets / right=0 / bottom=0
Default                                  : Yes
Forced                                   : No
Color range                              : Limited

Audio #1
ID                                       : 2
Format                                   : E-AC-3
Format/Info                              : Enhanced AC-3
Commercial name                          : Dolby Digital Plus
Codec ID                                 : A_EAC3
Duration                                 : 2 h 6 min
Bit rate mode                            : Constant
Bit rate                                 : 640 kb/s
Channel(s)                               : 6 channels
Channel layout                           : L R C LFE Ls Rs
Sampling rate                            : 48.0 kHz
Frame rate                               : 31.250 FPS (1536 SPF)
Compression mode                         : Lossy
Stream size                              : 580 MiB (21%)
Title                                    : Org DDP 5.1 -RONIN
Language                                 : Hindi
Service kind                             : Complete Main
Default                                  : Yes
Forced                                   : Yes

Audio #2
ID                                       : 3
Format                                   : AAC LC SBR
Format/Info                              : Advanced Audio Codec Low Complexity with Spectral Band Replication
Commercial name                          : HE-AAC
Format settings                          : Explicit
Codec ID                                 : A_AAC-2
Duration                                 : 2 h 6 min
Bit rate                                 : 210 kb/s
Channel(s)                               : 6 channels
Channel layout                           : C L R Ls Rs LFE
Sampling rate                            : 48.0 kHz
Frame rate                               : 23.438 FPS (2048 SPF)
Compression mode                         : Lossy
Delay relative to video                  : 40 ms
Stream size                              : 191 MiB (7%)
Title                                    : AAC 5.1 -RONIN
Language                                 : English
Default                                  : No
Forced                                   : No

Text
ID                                       : 4
Format                                   : PGS
Muxing mode                              : zlib
Codec ID                                 : S_HDMV/PGS
Codec ID/Info                            : Picture based subtitle format used on BDs/HD-DVDs
Duration                                 : 1 h 57 min
Bit rate                                 : 40.1 kb/s
Count of elements                        : 2634
Stream size                              : 33.6 MiB (1%)
Language                                 : English
Default                                  : No
Forced                                   : No












2. Star Trek Into Darkness (2013) IMAX BluRay 1080p 10bit HEVC [Hindi Org DDP 5.1 - English AAC 5.1] x265 -RONIN

Media Info:-
General
Unique ID                                : 73884897632982593645249996727475181493 (0x3795B6B3A9A4494DC4C70E76FDBF17B5)
Complete name                            : 2. Star Trek Into Darkness (2013) IMAX BluRay 1080p 10bit HEVC [Hindi Org DDP 5.1 - English AAC 5.1] x265 -RONIN.mkv
Format                                   : Matroska
Format version                           : Version 4
File size                                : 3.25 GiB
Duration                                 : 2 h 13 min
Overall bit rate                         : 3 497 kb/s
Movie name                               : Star Trek Into Darkness (2013) BluRay 1080p 10bit HEVC [Hindi Org DDP 5.1 - English AAC 5.1] x265 -RONIN
Encoded date                             : UTC 2020-05-22 06:47:33
Writing application                      : mkvmerge v46.0.0 ('No Deeper Escape') 64-bit
Writing library                          : libebml v1.3.10 + libmatroska v1.5.2
Cover                                    : Yes
Attachments                              : cover.jpg

Video
ID                                       : 1
Format                                   : HEVC
Format/Info                              : High Efficiency Video Coding
Format profile                           : Main [email protected]@High
Codec ID                                 : V_MPEGH/ISO/HEVC
Duration                                 : 2 h 12 min
Bit rate                                 : 2 640 kb/s
Width                                    : 1 920 pixels
Height                                   : 1 080 pixels
Display aspect ratio                     : 16:9
Frame rate mode                          : Constant
Frame rate                               : 23.976 (24000/1001) FPS
Color space                              : YUV
Chroma subsampling                       : 4:2:0
Bit depth                                : 10 bits
Bits/(Pixel*Frame)                       : 0.053
Stream size                              : 2.44 GiB (75%)
Title                                    : Star Trek Into Darkness (2013) BluRay 1080p 10bit HEVC [Hindi Org DDP 5.1 - English AAC 5.1] x265 -RONIN
Writing library                          : x265 3.3+2-gbe2d82093:[Windows][GCC 9.2.0][64 bit] 10bit
Encoding settings                        : cpuid=1111039 / frame-threads=5 / numa-pools=16 / wpp / no-pmode / no-pme / no-psnr / no-ssim / log-level=2 / input-csp=1 / input-res=1920x1080 / interlace=0 / total-frames=190033 / level-idc=40 / high-tier=1 / uhd-bd=0 / ref=5 / no-allow-non-conformance / repeat-headers / annexb / aud / hrd / info / hash=0 / no-temporal-layers / no-open-gop / min-keyint=24 / keyint=240 / gop-lookahead=0 / bframes=4 / b-adapt=2 / b-pyramid / bframe-bias=0 / rc-lookahead=25 / lookahead-slices=4 / scenecut=40 / hist-scenecut=0 / radl=0 / no-splice / no-intra-refresh / ctu=64 / min-cu-size=8 / no-rect / no-amp / max-tu-size=32 / tu-inter-depth=1 / tu-intra-depth=1 / limit-tu=0 / rdoq-level=2 / dynamic-rd=0.00 / no-ssim-rd / signhide / no-tskip / nr-intra=0 / nr-inter=0 / no-constrained-intra / no-strong-intra-smoothing / max-merge=3 / limit-refs=1 / limit-modes / me=1 / subme=3 / merange=35 / temporal-mvp / no-frame-dup / no-hme / weightp / weightb / no-analyze-src-pics / deblock=0:0 / no-sao / no-sao-non-deblock / rd=4 / selective-sao=0 / early-skip / rskip / no-fast-intra / no-tskip-fast / no-cu-lossless / b-intra / no-splitrd-skip / rdpenalty=0 / psy-rd=2.00 / psy-rdoq=0.00 / no-rd-refine / no-lossless / cbqpoffs=0 / crqpoffs=0 / rc=crf / crf=23.0 / qcomp=0.60 / qpstep=4 / stats-write=0 / stats-read=0 / vbv-maxrate=20000 / vbv-bufsize=19500 / vbv-init=0.9 / crf-max=0.0 / crf-min=0.0 / ipratio=1.40 / pbratio=1.30 / aq-mode=3 / aq-strength=1.00 / cutree / zone-count=0 / no-strict-cbr / qg-size=32 / no-rc-grain / qpmax=69 / qpmin=0 / no-const-vbv / sar=0 / overscan=0 / videoformat=5 / range=0 / colorprim=2 / transfer=2 / colormatrix=2 / chromaloc=0 / display-window=0 / cll=0,0 / min-luma=0 / max-luma=1023 / log2-max-poc-lsb=8 / vui-timing-info / vui-hrd-info / slices=1 / no-opt-qp-pps / no-opt-ref-list-length-pps / multi-pass-opt-rps / scenecut-bias=0.00 / hist-threshold=0.01 / no-opt-cu-delta-qp / no-aq-motion / no-hdr10 / no-hdr10-opt / no-dhdr10-opt / no-idr-recovery-sei / analysis-reuse-level=0 / analysis-save-reuse-level=0 / analysis-load-reuse-level=0 / scale-factor=0 / refine-intra=0 / refine-inter=0 / refine-mv=1 / refine-ctu-distortion=0 / no-limit-sao / ctu-info=0 / no-lowpass-dct / refine-analysis-type=0 / copy-pic=1 / max-ausize-factor=1.0 / no-dynamic-refine / no-single-sei / no-hevc-aq / no-svt / no-field / qp-adaptation-range=1.00 / no-scenecut-aware-qpconformance-window-offsets / right=0 / bottom=0
Default                                  : Yes
Forced                                   : No
Color range                              : Limited

Audio #1
ID                                       : 2
Format                                   : E-AC-3
Format/Info                              : Enhanced AC-3
Commercial name                          : Dolby Digital Plus
Codec ID                                 : A_EAC3
Duration                                 : 2 h 13 min
Bit rate mode                            : Constant
Bit rate                                 : 640 kb/s
Channel(s)                               : 6 channels
Channel layout                           : L R C LFE Ls Rs
Sampling rate                            : 48.0 kHz
Frame rate                               : 31.250 FPS (1536 SPF)
Compression mode                         : Lossy
Stream size                              : 609 MiB (18%)
Title                                    : Org Hindi DDP 5.1 -RONIN
Language                                 : Hindi
Service kind                             : Complete Main
Default                                  : Yes
Forced                                   : No

Audio #2
ID                                       : 3
Format                                   : AAC LC SBR
Format/Info                              : Advanced Audio Codec Low Complexity with Spectral Band Replication
Commercial name                          : HE-AAC
Format settings                          : Explicit
Codec ID                                 : A_AAC-2
Duration                                 : 2 h 12 min
Bit rate                                 : 208 kb/s
Channel(s)                               : 6 channels
Channel layout                           : C L R Ls Rs LFE
Sampling rate                            : 48.0 kHz
Frame rate                               : 23.438 FPS (2048 SPF)
Compression mode                         : Lossy
Delay relative to video                  : 40 ms
Stream size                              : 197 MiB (6%)
Title                                    : AAC 5.1 -RONIN
Language                                 : English
Default                                  : No
Forced                                   : No

Text #1
ID                                       : 4
Format                                   : PGS
Muxing mode                              : zlib
Codec ID                                 : S_HDMV/PGS
Codec ID/Info                            : Picture based subtitle format used on BDs/HD-DVDs
Duration                                 : 2 h 3 min
Bit rate                                 : 41.3 kb/s
Count of elements                        : 3540
Stream size                              : 36.4 MiB (1%)
Language                                 : English
Default                                  : No
Forced                                   : No

Text #2
ID                                       : 5
Format                                   : PGS
Muxing mode                              : zlib
Codec ID                                 : S_HDMV/PGS
Codec ID/Info                            : Picture based subtitle format used on BDs/HD-DVDs
Duration                                 : 2 h 2 min
Bit rate                                 : 47.3 kb/s
Count of elements                        : 4014
Stream size                              : 41.3 MiB (1%)
Language                                 : English
Default                                  : No
Forced                                   : No














3. Star Trek Beyond (2016) BluRay 1080p 10bit HEVC [Hindi Org DDP 5.1 - English AAC 5.1] x265 -RONIN

Media Info:-
General
Unique ID                                : 311574762109193502410509171351972559958 (0xEA671DCE1A8A8EF28793EF95E9093C56)
Complete name                            : 3. Star Trek Beyond (2016) BluRay 1080p 10bit HEVC [Hindi Org DDP 5.1 - English AAC 5.1] x265 -RONIN.mkv
Format                                   : Matroska
Format version                           : Version 4
File size                                : 2.66 GiB
Duration                                 : 2 h 2 min
Overall bit rate                         : 3 106 kb/s
Movie name                               : Star Trek Beyond (2016) BluRay 1080p 10bit HEVC [Hindi Org DDP 5.1 - English AAC 5.1] x265 -RONIN
Encoded date                             : UTC 2020-05-22 07:05:12
Writing application                      : mkvmerge v46.0.0 ('No Deeper Escape') 64-bit
Writing library                          : libebml v1.3.10 + libmatroska v1.5.2
Cover                                    : Yes
Attachments                              : cover.jpg

Video
ID                                       : 1
Format                                   : HEVC
Format/Info                              : High Efficiency Video Coding
Format profile                           : Main [email protected]@High
Codec ID                                 : V_MPEGH/ISO/HEVC
Duration                                 : 2 h 2 min
Bit rate                                 : 2 231 kb/s
Width                                    : 1 920 pixels
Height                                   : 800 pixels
Display aspect ratio                     : 2.40:1
Frame rate mode                          : Constant
Frame rate                               : 23.976 (24000/1001) FPS
Color space                              : YUV
Chroma subsampling                       : 4:2:0
Bit depth                                : 10 bits
Bits/(Pixel*Frame)                       : 0.061
Stream size                              : 1.91 GiB (72%)
Title                                    : Star Trek Beyond (2016) BluRay 1080p 10bit HEVC [Hindi Org DDP 5.1 - English AAC 5.1] x265 -RONIN
Writing library                          : x265 3.3+2-gbe2d82093:[Windows][GCC 9.2.0][64 bit] 10bit
Encoding settings                        : cpuid=1111039 / frame-threads=5 / numa-pools=16 / wpp / no-pmode / no-pme / no-psnr / no-ssim / log-level=2 / input-csp=1 / input-res=1920x800 / interlace=0 / total-frames=176036 / level-idc=40 / high-tier=1 / uhd-bd=0 / ref=5 / no-allow-non-conformance / repeat-headers / annexb / aud / hrd / info / hash=0 / no-temporal-layers / no-open-gop / min-keyint=24 / keyint=240 / gop-lookahead=0 / bframes=4 / b-adapt=2 / b-pyramid / bframe-bias=0 / rc-lookahead=25 / lookahead-slices=4 / scenecut=40 / hist-scenecut=0 / radl=0 / no-splice / no-intra-refresh / ctu=64 / min-cu-size=8 / no-rect / no-amp / max-tu-size=32 / tu-inter-depth=1 / tu-intra-depth=1 / limit-tu=0 / rdoq-level=2 / dynamic-rd=0.00 / no-ssim-rd / signhide / no-tskip / nr-intra=0 / nr-inter=0 / no-constrained-intra / no-strong-intra-smoothing / max-merge=3 / limit-refs=1 / limit-modes / me=1 / subme=3 / merange=35 / temporal-mvp / no-frame-dup / no-hme / weightp / weightb / no-analyze-src-pics / deblock=-1:-1 / no-sao / no-sao-non-deblock / rd=4 / selective-sao=0 / early-skip / rskip / no-fast-intra / no-tskip-fast / no-cu-lossless / b-intra / no-splitrd-skip / rdpenalty=0 / psy-rd=2.00 / psy-rdoq=0.00 / no-rd-refine / no-lossless / cbqpoffs=0 / crqpoffs=0 / rc=crf / crf=22.0 / qcomp=0.60 / qpstep=4 / stats-write=0 / stats-read=0 / vbv-maxrate=20000 / vbv-bufsize=19500 / vbv-init=0.9 / crf-max=0.0 / crf-min=0.0 / ipratio=1.40 / pbratio=1.30 / aq-mode=3 / aq-strength=1.00 / cutree / zone-count=0 / no-strict-cbr / qg-size=32 / no-rc-grain / qpmax=69 / qpmin=0 / no-const-vbv / sar=0 / overscan=0 / videoformat=5 / range=0 / colorprim=2 / transfer=2 / colormatrix=2 / chromaloc=0 / display-window=0 / cll=0,0 / min-luma=0 / max-luma=1023 / log2-max-poc-lsb=8 / vui-timing-info / vui-hrd-info / slices=1 / no-opt-qp-pps / no-opt-ref-list-length-pps / multi-pass-opt-rps / scenecut-bias=0.00 / hist-threshold=0.01 / no-opt-cu-delta-qp / no-aq-motion / no-hdr10 / no-hdr10-opt / no-dhdr10-opt / no-idr-recovery-sei / analysis-reuse-level=0 / analysis-save-reuse-level=0 / analysis-load-reuse-level=0 / scale-factor=0 / refine-intra=0 / refine-inter=0 / refine-mv=1 / refine-ctu-distortion=0 / no-limit-sao / ctu-info=0 / no-lowpass-dct / refine-analysis-type=0 / copy-pic=1 / max-ausize-factor=1.0 / no-dynamic-refine / no-single-sei / no-hevc-aq / no-svt / no-field / qp-adaptation-range=1.00 / no-scenecut-aware-qpconformance-window-offsets / right=0 / bottom=0
Default                                  : Yes
Forced                                   : No
Color range                              : Limited

Audio #1
ID                                       : 2
Format                                   : E-AC-3
Format/Info                              : Enhanced AC-3
Commercial name                          : Dolby Digital Plus
Codec ID                                 : A_EAC3
Duration                                 : 2 h 2 min
Bit rate mode                            : Constant
Bit rate                                 : 640 kb/s
Channel(s)                               : 6 channels
Channel layout                           : L R C LFE Ls Rs
Sampling rate                            : 48.0 kHz
Frame rate                               : 31.250 FPS (1536 SPF)
Compression mode                         : Lossy
Delay relative to video                  : 1 s 100 ms
Stream size                              : 560 MiB (21%)
Title                                    : Org DDP 5.1 -RONIN
Language                                 : Hindi
Service kind                             : Complete Main
Default                                  : Yes
Forced                                   : Yes

Audio #2
ID                                       : 3
Format                                   : AAC LC SBR
Format/Info                              : Advanced Audio Codec Low Complexity with Spectral Band Replication
Commercial name                          : HE-AAC
Format settings                          : Explicit
Codec ID                                 : A_AAC-2
Duration                                 : 2 h 2 min
Bit rate                                 : 212 kb/s
Channel(s)                               : 6 channels
Channel layout                           : C L R Ls Rs LFE
Sampling rate                            : 48.0 kHz
Frame rate                               : 23.438 FPS (2048 SPF)
Compression mode                         : Lossy
Delay relative to video                  : 40 ms
Stream size                              : 185 MiB (7%)
Title                                    : AAC 5.1 -RONIN
Language                                 : English
Default                                  : No
Forced                                   : No

Text #1
ID                                       : 4
Format                                   : PGS
Muxing mode                              : zlib
Codec ID                                 : S_HDMV/PGS
Codec ID/Info                            : Picture based subtitle format used on BDs/HD-DVDs
Duration                                 : 1 h 51 min
Bit rate                                 : 33.2 kb/s
Count of elements                        : 2532
Stream size                              : 26.5 MiB (1%)
Language                                 : English
Default                                  : No
Forced                                   : No

Text #2
ID                                       : 5
Format                                   : PGS
Muxing mode                              : zlib
Codec ID                                 : S_HDMV/PGS
Codec ID/Info                            : Picture based subtitle format used on BDs/HD-DVDs
Duration                                 : 1 h 51 min
Bit rate                                 : 38.6 kb/s
Count of elements                        : 3054
Stream size                              : 30.9 MiB (1%)
Title                                    : SDH
Language                                 : English
Default                                  : No
Forced                                   : No

Menu
00:00:00.000                             : en:00:00:00.000
00:08:26.548                             : en:00:08:26.548
00:16:11.637                             : en:00:16:11.637
00:32:38.290                             : en:00:32:38.290
00:42:16.367                             : en:00:42:16.367
00:52:22.264                             : en:00:52:22.264
00:59:50.629                             : en:00:59:50.629
01:12:05.530                             : en:01:12:05.530
01:22:34.449                             : en:01:22:34.449
01:33:00.950                             : en:01:33:00.950
01:40:33.319                             : en:01:40:33.319
01:47:38.994                             : en:01:47:38.994
01:52:32.663                             : en:01:52:32.663
01:55:41.351                             : en:01:55:41.351














Enjoy The Quality by RONIN




Category:Movies > Dubs/Dual Audio
Lang:Hindi  Hindi
Total Size:8.64 GB
Info Hash:8e3c4f5359133e2d100ec853fad20a5046377701
Added By:R0n1N
Date Added:22-05-2020 15:11:45

Files

File List: 
 File Size
1. Star Trek (2009) BluRay 1080p 10bit HEVC [Hindi Org DDP 5.1 - English AAC 5.1] x265 -RONIN.mkv2.73 GB
2. Star Trek Into Darkness (2013) IMAX BluRay 1080p 10bit HEVC [Hindi Org DDP 5.1 - English AAC 5.1] x265 -RONIN.mkv3.25 GB
3. Star Trek Beyond (2016) BluRay 1080p 10bit HEVC [Hindi Org DDP 5.1 - English AAC 5.1] x265 -RONIN.mkv2.66 GB



Comments

There are currently no comments. Be the first one to write something !