bad boys Greys Anatomy S16E19 The Call of the Wild 2020 yts The Sinner S03E08 The Walking Dead S10E14 Fantasy Island 2020 underwater jumanji the next level 2019 Frozen II 2019 blacklist the way back 2020 Brooklyn Nine-Nine S07E09 Joker 2019 bloodshot xxx RuPauls Drag Race S12E05 etrg Ozark s03e05 onward 2020 greys anatomy Star Trek Picard Sonic the Hedgehog 2020 evo Contagion 2011 ozark the blacklist  WALKING DEAD a quiet place part ii 2020 Trolls World Tour 2020 ethd Ozark s03e04 Star Trek Picard S01E09 MacGyver S04E07 bad boys for life The Invisible Man 2020 The Gentlemen 2019 The Hunt 2020 gold rush 1917 2019 ettv ddr Deputy s01e13 Tiger King Murder, Mayhem and Madness S01E01 The Platform 2019 Spenser Confidential 2020 Westworld s03e02 The Banker 2020 Star Trek Picard S01E10 the walking dead Hawaii Five-0 S10E21 The Blacklist S07E12 bad boys for life 2020 Westworld Underwater 2020 hindi Spies in Disguise 2019 the gentlemen 2020 Dolittle 2020 etmovies Birds of Prey (and the Fantabulous Emancipation of One Harley Quinn) 2020 Ozark S03E01 bloodshot 2020 knives out 2019 the gentlemen Ozark s03e02 the call of the wild Picard rq.mp4 brooklyn nine nine Ozark s03e03 Star Wars The Rise of Skywalker 2019 
ETTV Recommended TV Shows
Homeland.S08E08.WEB.H264-XLF[ettv] torrent
Outlander.S05E07.WEB.H264-XLF[ettv] torrent
Deputy (2020) Season 1 S01 (1080p AMZN WEB-DL x265 HEVC 10bit AAC 5.1 Vyndros) torrent
Star Trek Picard (2020) Season 1 S01 (1080p AMZN WEB-DL x265 HEVC 10bit DDP 5.1 Vyndros) torrent

ETTV Recommended SD
Homeward.2020.BRRip.XviD.AC3-EVO torrent
What.Love.Looks.Like.2020.HDRip.XviD.AC3-EVO torrent
Red Shoes and the Seven Dwarfs.2020.HDRip.XviD-EVO torrent
In.Vino.2019.HDRip.XviD.AC3-EVO torrent

ETTV Recommended HD
Red Shoes and the Seven Dwarfs.2020.1080p.HDRip.X264.AC3-EVO[EtHD] torrent
In.Vino.2019.1080p.WEB-DL.H264.AC3-EVO[EtHD] torrent
Maze.Runner.The.Death.Cure.2018.BRRip.1080p.HEVC.HDR.Multi.DD5.1.ETRG torrent
Hostiles.2017.BRRip.1080p.HEVC.HDR.Eng.DD5.1.ETRG torrent

ETTV Recommended UHD
Transformers.The.Last.Knight.2017.BDRip.2160p.UHD.HDR.TrueHD.ETRG torrent
Lady.and.the.Tramp 2019 4K.HDR.2160p.WEBDL Ita Eng x265-NAHOM torrent
Maze.Runner.The.Death.Cure.2018.BDRip.2160p.UHD.HDR.Multi.TrueHD.DTS.ETRG torrent
Hostiles.2017.BDRip.2160p.UHD.HDR.Eng.DTS-HDMA.ETRG torrent

ETTV Recommended Cam
My Spy 2020 HDCAM x264 AC3-ETRG torrent
The Hunt 2020 HDCAM x264 AC3-ETRG torrent
The Burnt Orange Heresy 2020 720p HDCAM-C1NEM4 torrent
Fantasy Island 2020 UNRATED HDTS XViD AC3-ETRG torrent

ETTV Recommended Foreign
Underwater (2020) HDRip 720p [Hindi-Dub] Dual-Audio x264 - 1XCinema torrent
Bloodshot (2020) ITA-ENG Ac3 5.1 WEBRip 1080p H264 [ArMor] torrent
The Black Hole (2006) 720p WEBRip x264 Eng Subs [Dual Audio] [Hindi DD 2.0 - English 2.0] Exclusive By -=!Dr.STAR!=- torrent
Justin and the Knights of Valour (2013) 720p BluRay x264 Eng Subs [Dual Audio] [Hindi DD 2.0 - English 2.0] Exclusive By -=!Dr.STAR!=- torrent


Download Torrent "Naked (2020) Hindi S01 [Ep1-10] Mx Original 720p WEB-DL x264 AAC 1.3GB [HDW..."

IMDB Details
Description:

N/A

Genre:

N/A

Download Torrent (Magnet)
Seeds: 647
Leechers: 906
Completed: 1,053 
Last Checked: 26-03-2020 12:10:30


Details
Title:Naked (2020) Hindi S01 [Ep1-10] Mx Original 720p WEB-DL x264 AAC 1.3GB [HDW...
Description:

Visit Our Site https://hdwebmovies.pw






Movie name :

Naked (2020) Hindi S01 [Ep1-10] Mx Original 720p WEB-DL x264 AAC 1.3GB [HDWebMovies]


General 
Format : Matroska 
Format version : Version 4 
File size : 1.31 GiB 
Duration : 3 h 7 min 
Overall bit rate : 1 005 kb/s 
Writing application : Lavf58.29.100 
Writing library : Lavf58.29.100 
ErrorDetectionType : Per level 1 

Video 
ID : 1 
Format : AVC 
Format/Info : Advanced Video Codec 
Format profile : [email protected] 
Format settings : CABAC / 4 Ref Frames 
Format settings, CABAC : Yes 
Format settings, Reference frames : 4 frames 
Codec ID : V_MPEG4/ISO/AVC 
Duration : 3 h 7 min 
Bit rate : 1 257 kb/s 
Nominal bit rate : 904 kb/s 
Width : 1 280 pixels 
Height : 720 pixels 
Display aspect ratio : 16:9 
Frame rate mode : Constant 
Frame rate : 25.000 FPS 
Color space : YUV 
Chroma subsampling : 4:2:0 
Bit depth : 8 bits 
Scan type : Progressive 
Bits/(Pixel*Frame) : 0.055 
Stream size : 1.64 GiB 
Language : English 
Default : Yes 
Forced : No 

Audio 
ID : 2 
Format : AAC LC 
Format/Info : Advanced Audio Codec Low Complexity 
Codec ID : A_AAC-2 
Duration : 3 h 7 min 
Bit rate : 64.2 kb/s 
Channel(s) : 1 channel 
Channel layout : C 
Sampling rate : 44.1 kHz 
Frame rate : 43.066 FPS (1024 SPF) 
Compression mode : Lossy 
Stream size : 85.9 MiB (6%) 
Writing library : Lavc58.54.100 libfdk_aac 
Language : English 
Default : Yes 
Forced : No 











Category:TV > HD/X264/H264
Lang:Hindi  Hindi
Total Size:1.31 GB
Info Hash:b115c55d39aa3c92afcbe6a231b656f990d493c9
Added By:Suryadipta
Date Added:26-03-2020 12:10:27

  

Files

File List: 
 File Size
Naked (2020) Hindi S01 [Ep1-10] Mx Original 720p WEB-DL x264 AAC 1.3GB.mkv1.31 GB



Comments

There are currently no comments. Be the first one to write something !