0 homeland Birds of Prey (and the Fantabulous Emancipation of One Harley Quinn) 2020 the call of the wild 2020 Gretel and Hansel 2020 The Hunt 2020 outlander The Gentlemen 2019 better call saul s05e08 Trolls World Tour 2020 money heist all rise Westworld s03e02 Underwater 2020 Good Girls S03E08 jumanji the next level 2019 Bull S04E18 Manifest evo tiger king xxx the walking dead rq.mp4 fantasy island 2020 yts sonic the hedgehog 2020 etmovies 1917 2019 ettv Bad Boys for Life 2020 Manifest S02E13 Wwe contagion 2011 Star Wars The Rise of Skywalker 2019 westworld hindi The Walking Dead S10E14 Westworld S03E04 The Walking Dead S10E15 Below Deck Sailing Yacht S01E10 The Blacklist S07E13 Frozen II 2019 The Neighborhood S02E19 onward 2020 The Invisible Man 2020 westworld s03e03 Briarpatch S01E09 dolittle 2020 Last Week Tonight with John Oliver S07E07 Knives Out 2019 Ozark s03e07 All Rise S01E19 Bloodshot 2020 The Voice S18E08 Almost Paradise S01E02 Vivarium 2020 my spy My Spy 2020 The Platform 2019 bull etrg better call saul ddr Survive S01E01 The Rookie S02E16 ethd Homeland S08E09 The Banker 2020 ita ip man 4 
ETTV Recommended TV Shows
All.Rise.S01E19.HDTV.x264-SVA[ettv] torrent
Roswell.New.Mexico.S02E04.HDTV.x264-SVA[ettv] torrent
The.Resident.S03E20.WEB.x264-XLF[ettv] torrent
Empire.2015.S06E16.WEB.H264-iNSiDiOUS[ettv] torrent

ETTV Recommended SD
Trolls.World.Tour.2020.AMZN.HDRip,XViD-ETRG torrent
Like.A.Boss.2020.HDRip.XViD-ETRG torrent
The.Turning.2020.HDRip.XViD-ETRG torrent
Mosley.2019.HDRip.XviD.AC3-EVO torrent

ETTV Recommended HD
Gretel.and.Hansel.2020.1080p.WEB-DL.DD5.1.x264-CMRG[EtHD] torrent
Like.a.Boss.2020.1080p.WEB-DL.DD5.1.x264-CMRG[EtHD] torrent
Gold.Dust.2020.1080p.WEB-DL.H264.AC3-EVO[EtHD] torrent
Mosley.2019.1080p.WEB-DL.H264.AC3-EVO[EtHD] torrent

ETTV Recommended UHD
Dolphin.Reef.2020.UHD.2160p.WebRip.HDR.DDP.5.1.HEVC-DDR.mkv torrent
Hulk.2003.BDRip.2160p.UHD.HDR.Eng.Fre.DTS-HDMA.ETRG torrent
The.Incredible.Hulk.2008.BDRip.2160p.UHD.HDR.Eng.DTS.ETRG torrent
Stand.by.Me.1986.BDRip.2160p.UHD.HDR.Eng.TrueHD.ETRG torrent

ETTV Recommended Cam
My Spy 2020 HDCAM x264 AC3-ETRG torrent
The Hunt 2020 HDCAM x264 AC3-ETRG torrent
The Burnt Orange Heresy 2020 720p HDCAM-C1NEM4 torrent
Fantasy Island 2020 UNRATED HDTS XViD AC3-ETRG torrent

ETTV Recommended Foreign
Angrezi Medium 2020.1080p.DSNP+.WEB-DL.Hin.AAC.2.0.H265-Telly torrent
Cursed - Il maleficio (2005).720p.H264.ita.eng.Ac3-5.1.sub.ita.eng-MIRCrew torrent
1917 (2019) BRRip 720p [Hindi DD5.1] Dual-Audio x264 - KatmovieHD torrent
Har Kisse Ke Hisse Kaamyaab.2020.1080p.Itunes.WED-DL.DD.5.1.x264-Telly torrent


Download Torrent "The Last Thing He Wanted (2020) 720p Web-DL x264 [Dual-Audio][Hindi 5.1 - E..."

IMDB Details
Description:

A veteran D.C. journalist loses the thread of her own narrative when a guilt-propelled errand for her father thrusts her from byline to unwitting subject in the very story she's trying to break. Adapted from Joan Didion's namesake novel.

Genre:

Crime, Drama, Mystery, Thriller

Download Torrent (Magnet)
Seeds: 445
Leechers: 411
Completed: 948 
Last Checked: 21-02-2020 17:39:43


Details
Title:The Last Thing He Wanted (2020) 720p Web-DL x264 [Dual-Audio][Hindi 5.1 - E...
Description:






Format                                   : AVC
Format/Info                              : Advanced Video Codec
Format profile                           : [email protected]
Format settings                          : CABAC / 4 Ref Frames
Format settings, CABAC                   : Yes
Format settings, RefFrames               : 4 frames
Codec ID                                 : V_MPEG4/ISO/AVC
Duration                                 : 1 h 55 min
Bit rate                                 : 961 kb/s
Width                                    : 1 280 pixels
Height                                   : 720 pixels
Display aspect ratio                     : 16:9
Frame rate mode                          : Constant
Frame rate                               : 24.000 FPS
Color space                              : YUV
Chroma subsampling                       : 4:2:0
Bit depth                                : 8 bits
Scan type                                : Progressive
Bits/(Pixel*Frame)                       : 0.043
Stream size                              : 775 MiB (79%)
Title                                    : Downloadhub.blog
Writing library                          : x264 core 157 r2935 545de2f
Encoding settings                        : cabac=1 / ref=2 / deblock=1:0:0 / analyse=0x1:0x111 / me=hex / subme=6 / psy=1 / psy_rd=1.00:0.00 / mixed_ref=1 / me_range=16 / chroma_me=1 / trellis=1 / 8x8dct=0 / cqm=0 / deadzone=21,11 / fast_pskip=1 / chroma_qp_offset=-2 / threads=22 / lookahead_threads=3 / sliced_threads=0 / nr=0 / decimate=1 / interlaced=0 / bluray_compat=0 / constrained_intra=0 / bframes=3 / b_pyramid=2 / b_adapt=1 / b_bias=0 / direct=1 / weightb=1 / open_gop=0 / weightp=1 / keyint=240 / keyint_min=24 / scenecut=40 / intra_refresh=0 / rc_lookahead=30 / rc=abr / mbtree=1 / bitrate=961 / ratetol=1.0 / qcomp=0.60 / qpmin=0 / qpmax=69 / qpstep=4 / vbv_maxrate=20000 / vbv_bufsize=25000 / nal_hrd=none / filler=0 / ip_ratio=1.40 / aq=1:1.00
Default                                  : Yes
Forced                                   : No
Color range                              : Limited
Color primaries                          : BT.709
Transfer characteristics                 : BT.709
Matrix coefficients                      : BT.709

Audio #1
ID                                       : 2
Format                                   : AAC
Format/Info                              : Advanced Audio Codec
Format profile                           : HE-AAC / LC
Format settings                          : Explicit
Codec ID                                 : A_AAC-2
Duration                                 : 1 h 55 min
Bit rate                                 : 186 kb/s
Channel(s)                               : 6 channels
Channel positions                        : Front: L C R, Side: L R, LFE
Sampling rate                            : 48.0 kHz / 24.0 kHz
Frame rate                               : 23.438 FPS (1024 SPF)
Compression mode                         : Lossy
Delay relative to video                  : 10 ms
Stream size                              : 154 MiB (16%)
Title                                    : Downloadhub.blog
Language                                 : Hindi
Default                                  : Yes
Forced                                   : Yes

Audio #2
ID                                       : 3
Format                                   : AAC
Format/Info                              : Advanced Audio Codec
Format profile                           : LC
Codec ID                                 : A_AAC-2
Duration                                 : 1 h 55 min
Bit rate                                 : 63.6 kb/s
Channel(s)                               : 2 channels
Channel positions                        : Front: L R
Sampling rate                            : 48.0 kHz
Frame rate                               : 46.875 FPS (1024 SPF)
Compression mode                         : Lossy
Delay relative to video                  : -21 ms
Stream size                              : 52.6 MiB (5%)
Title                                    : Downloadhub.blog
Language                                 : English
Default                                  : No
Forced                                   : No

Text #1
ID                                       : 4
Format                                   : ASS
Codec ID                                 : S_TEXT/ASS
Codec ID/Info                            : Advanced Sub Station Alpha
Duration                                 : 1 min 16 s
Bit rate                                 : 103 b/s
Count of elements                        : 18
Compression mode                         : Lossless
Stream size                              : 991 Bytes (0%)
Title                                    : Downloadhub.blog
Language                                 : English
Default                                  : No
Forced                                   : No

Text #2
ID                                       : 5
Format                                   : ASS
Codec ID                                 : S_TEXT/ASS
Codec ID/Info                            : Advanced Sub Station Alpha
Duration                                 : 1 h 24 min
Bit rate                                 : 0 b/s
Count of elements                        : 3
Compression mode                         : Lossless
Stream size                              : 285 Bytes (0%)
Title                                    : Downloadhub.blog
Default                                  : Yes
Forced                                   : No










Category:Movies > Dubs/Dual Audio
Lang:Hindi  Hindi
Total Size:983 MB
Info Hash:14a68d9357dd2e2e874e8db1d6390d5cd2842f87
Added By:downloadhub
Date Added:21-02-2020 17:39:40

  

Files

File List: 
 File Size
Downloadhub.blog.txt1.71 kB
The Last Thing He Wanted 2020 Hindi Dual Audio www.downloadhub.blog 720p Web-DL ESubs.mkv983 MB
Torrent Seed By 1gbits.com.txt166.00 B



Comments

There are currently no comments. Be the first one to write something !