the 100 ethd Sonic the Hedgehog 2020 rick and morty s04e09 evo ettv 2160p betaal Scoob! 2020 batwoman the flash The Hunt 2020 insecure The Gentlemen 2020 Birds of Prey (and the Fantabulous Emancipation of One Harley Quinn) 2020 supergirl Extraction 2020 The Blackout hindi hightown Outlander  0 run Snowpiercer S01E02 The Lovebirds 2020 seal team  AEW rick and morty s04e08 legends of tomorrow westworld star wars the rise of skywalker 2019 BILLIONS Hightown S01E02 rq.mp4 etmovies EtHD ddr Stargirl S01E01 The Invisible Man 2020 penny dreadful defending jacob Survive the Night 2020 Good Witch S06E04 Rick and Morty stargirl wwe stargirl s01e02 Penny Dreadful City of Angels S01E05 what we do in the shadows Killing Eve S03E07 Defending Jacob S01E07 Capone 2020 ufc Modern Love s01e07 Live PD s04e65 Billions S05E04 Killing Eve yts Locke  Bloodshot 2020 Harley Quinn Xxx Bad Boys for Life 2020 etrg snowpiercer Blindspot Inheritance 2020 90 Day Fiance Before The 90 Days S04E14 The Wrong Missy 2020 
Warning! Use a VPN When Downloading Torrents!
Your IP Address is 3.235.172.213. Location United States
Your Internet Provider can see when you download torrents! Hide your IP Address with a VPN
ETTV warns: You should use VPN to hide your torrenting. HIDE ME NOW
ETTV Recommended TV Shows
Snowpiercer.S01E02.HDTV.x264-KILLERS[ettv] torrent
Rick.and.Morty.S04E09.WEBRip.x264-BTX[ettv] torrent
I.Know.This.Much.Is.True.S01E03.WEB.H264-BTX[ettv] torrent
Stargirl.S01E02.720p.WEB.x265-[ettv] torrent

ETTV Recommended SD
Measure.For.Measure.2020.HDRip.XviD.AC3-EVO torrent
Return.Of.The.Tooth.Fairy.2020.HDRip.XviD.AC3-EVO torrent
Coven.Of.Evil.2020.HDRip.XviD.AC3-EVO torrent
Celebrity.Crush.2019.HDRip.XviD.AC3-EVO torrent

ETTV Recommended HD
Measure.For.Measure.2020.1080p.WEB-DL.H264.AC3-EVO[EtHD] torrent
Return.Of.The.Tooth.Fairy.2020.1080p.WEB-DL.H264.AC3-EVO[EtHD] torrent
Celebrity.Crush.2019.1080p.WEB-DL.H264.AC3-EVO[EtHD] torrent
Coven.Of.Evil.2020.1080p.WEB-DL.H264.AC3-EVO[EtHD] torrent

ETTV Recommended UHD
Lock.Up.1989.BDRip.2160p.UHD.HDR.Eng.DTS-HD.MA.ETRG torrent
2001.A.Space.Odyssey.1968.BDRip.2160p.UHD.HDR.Eng.DTS-HD.MA.ETRG torrent
War.of.the.Worlds.2005.4K.HDR.2160p.BDRip Ita Eng x265-NAHOM torrent
The Blues Brothers 1980.MULTi.UHD.BluRay.2160p.HDR.HEVC.DTS-X.7.1-DDR.mkv torrent

ETTV Recommended Cam
The Hunt 2020 HDCAM x264 AC3-ETRG torrent
The Burnt Orange Heresy 2020 720p HDCAM-C1NEM4 torrent

ETTV Recommended Foreign
The Bank Job 2008 1080p 10bit BluRay x265 HEVC [Hindi 5.1 - English 5.1] ESub - MoviePirate - Telly.mkv torrent
Muori papà... muori! (2019) [BluRay Rip 1080p ITA-RUS DTS-AC3 SUBS] [M@HD] torrent
All for Nikki  (2020) HDRip 720p [Hindi-Dub] Dual-Audio x264 - 1XCinema torrent
Betaal.S01.2020.UHD.2160p.HDR.WEB-Rip.Atmos.5.1.HEVC-DDR torrent

Sponsored


Download Torrent "The Fast And The Furious (2001) Open Matte (1080p Web-DL x265 HEVC 10bit AA..."

IMDB Details
Description:

Los Angeles police officer Brian O'Conner must decide where his loyalty really lies when he becomes enamored with the street racing world he has been sent undercover to destroy.

Genre:

Action, Crime, Thriller

Download Torrent (Magnet)
Download Torrent (File)
Seeds: 469
Leechers: 110
Completed: 3,140 
Last Checked: 03-02-2020 17:20:56


Details
Title:The Fast And The Furious (2001) Open Matte (1080p Web-DL x265 HEVC 10bit AA...
Description:




Screenshots


Media Information
General
Format                                   : Matroska
Format version                           : Version 4 / Version 2
File size                                : 1.64 GiB
Duration                                 : 1 h 46 min
Overall bit rate                         : 2 203 kb/s
Movie name                               : The Fast And The Furious (2001) Open Matte (1080p Web-DL x265 HEVC 10bit AAC 5.1 RN) [UTR]
Encoded date                             : UTC 2020-02-01 21:16:33
Writing application                      : mkvmerge v43.0.0 ('The Quartermaster') 64-bit
Writing library                          : libebml v1.3.10 + libmatroska v1.5.2
Cover                                    : Yes
Attachments                              : cover.jpg

Video
ID                                       : 1
Format                                   : HEVC
Format/Info                              : High Efficiency Video Coding
Format profile                           : Main [email protected]@Main
Codec ID                                 : V_MPEGH/ISO/HEVC
Duration                                 : 1 h 46 min
Bit rate                                 : 2 001 kb/s
Width                                    : 1 920 pixels
Height                                   : 1 080 pixels
Display aspect ratio                     : 16:9
Frame rate mode                          : Constant
Frame rate                               : 23.976 (24000/1001) FPS
Color space                              : YUV
Chroma subsampling                       : 4:2:0
Bit depth                                : 10 bits
Bits/(Pixel*Frame)                       : 0.040
Stream size                              : 1.49 GiB (91%)
Writing library                          : x265 3.2+9-971180b100f8:[Windows][GCC 9.2.0][64 bit] 10bit
Encoding settings                        : cpuid=1111039 / frame-threads=2 / numa-pools=4 / wpp / no-pmode / no-pme / no-psnr / no-ssim / log-level=2 / input-csp=1 / input-res=1920x1080 / interlace=0 / total-frames=153681 / level-idc=0 / high-tier=1 / uhd-bd=0 / ref=5 / no-allow-non-conformance / no-repeat-headers / annexb / no-aud / no-hrd / info / hash=0 / no-temporal-layers / open-gop / min-keyint=23 / keyint=250 / gop-lookahead=0 / bframes=8 / b-adapt=2 / b-pyramid / bframe-bias=0 / rc-lookahead=40 / lookahead-slices=0 / scenecut=40 / radl=0 / no-splice / no-intra-refresh / ctu=64 / min-cu-size=8 / rect / amp / max-tu-size=32 / tu-inter-depth=3 / tu-intra-depth=3 / limit-tu=4 / rdoq-level=2 / dynamic-rd=0.00 / no-ssim-rd / signhide / no-tskip / nr-intra=0 / nr-inter=0 / no-constrained-intra / strong-intra-smoothing / max-merge=4 / limit-refs=1 / limit-modes / me=3 / subme=4 / merange=57 / temporal-mvp / no-frame-dup / no-hme / weightp / weightb / no-analyze-src-pics / deblock=-3:-3 / no-sao / no-sao-non-deblock / rd=6 / selective-sao=0 / no-early-skip / rskip / no-fast-intra / no-tskip-fast / no-cu-lossless / b-intra / no-splitrd-skip / rdpenalty=0 / psy-rd=2.00 / psy-rdoq=1.00 / no-rd-refine / no-lossless / cbqpoffs=0 / crqpoffs=0 / rc=abr / bitrate=2000 / qcomp=0.60 / qpstep=4 / stats-write=0 / stats-read=2 / cplxblur=20.0 / qblur=0.5 / ipratio=1.40 / pbratio=1.30 / aq-mode=1 / aq-strength=1.00 / cutree / zone-count=0 / no-strict-cbr / qg-size=32 / no-rc-grain / qpmax=69 / qpmin=0 / no-const-vbv / sar=0 / overscan=0 / videoformat=5 / range=0 / colorprim=1 / transfer=1 / colormatrix=1 / chromaloc=0 / display-window=0 / cll=0,0 / min-luma=0 / max-luma=1023 / log2-max-poc-lsb=8 / vui-timing-info / vui-hrd-info / slices=1 / no-opt-qp-pps / no-opt-ref-list-length-pps / no-multi-pass-opt-rps / scenecut-bias=0.05 / no-opt-cu-delta-qp / no-aq-motion / no-hdr / no-hdr-opt / no-dhdr10-opt / no-idr-recovery-sei / analysis-reuse-level=5 / scale-factor=0 / refine-intra=0 / refine-inter=0 / refine-mv=1 / refine-ctu-distortion=0 / no-limit-sao / ctu-info=0 / no-lowpass-dct / refine-analysis-type=0 / copy-pic=1 / max-ausize-factor=1.0 / no-dynamic-refine / no-single-sei / hevc-aq / no-svt / no-field / qp-adaptation-range=1.00
Default                                  : Yes
Forced                                   : No
Color range                              : Limited
Color primaries                          : BT.709
Transfer characteristics                 : BT.709
Matrix coefficients                      : BT.709

Audio
ID                                       : 2
Format                                   : AAC
Format/Info                              : Advanced Audio Codec
Format profile                           : HE-AAC / LC
Codec ID                                 : A_AAC
Duration                                 : 1 h 46 min
Bit rate                                 : 200 kb/s
Channel(s)                               : 6 channels
Channel positions                        : Front: L C R, Side: L R, LFE
Sampling rate                            : 48.0 kHz / 24.0 kHz
Frame rate                               : 23.438 FPS (1024 spf)
Compression mode                         : Lossy
Delay relative to video                  : 31 ms
Stream size                              : 153 MiB (9%)
Language                                 : English
Default                                  : No
Forced                                   : No

Subtitle
ID                                       : 3
Format                                   : UTF-8
Codec ID                                 : S_TEXT/UTF8
Codec ID/Info                            : UTF-8 Plain Text
Duration                                 : 1 h 38 min
Bit rate                                 : 92 b/s
Count of elements                        : 811
Stream size                              : 66.7 KiB (0%)
Language                                 : English
Default                                  : Yes
Forced                                   : No



Source Information
Release: 
The Fast and the Furious [2001, USA, action, thriller, crime, WEB-DL 1080p] [Open Matte] ~ (13.65gb)



Note From UTR
Whilst we are happy for our releases to be re-posted on a platform we aren't on, please do so in an 'as-is' format. We ask that you do not create a new torrent, include all descriptions you see above including the UTR logo, tags, notes and screenshots. If you'd like to become a permanent poster on a website we don't post to, feel free to get in contact with a UTR member.
If possible please donate for seedboxes.
BTC - 1QA5fum5AyXvWzdVCkQzUNvw3Ef15fHRaR
Monero - 8AuksPSzY7fen3HHT1a2342PgVy4J93MKfXG3AAcayV76miTyJ3sNfn38srwrpLirGfeR5DwhTL8GW8pdQgT7bZcJ25ynMx
Dash - Xh4mNs6uwZdpCEX2HSEVwGvPD7yKxZ1Ccd
Ethereum - 0x51c06c94e74c16735a7a6e841ad29fc90a84eb1f



Category:Movies > HEVC/x265
Lang:English  English
Total Size:1.64 GB
Info Hash:babc214ffb22342ed9f4b88fbb71a0b7fdec8e7f
Added By:UTR
Date Added:03-02-2020 17:20:54

Files

File List: 
 File Size
The Fast And The Furious (2001) Open Matte (1080p Web-DL x265 HEVC 10bit AAC 5.1 RN) [UTR].mkv1.64 GB



Comments

There are currently no comments. Be the first one to write something !