Survive the Night 2020 Space Force S01E01 Marvel Week Brazzers Best Of Brazzers game of thrones  13 Reasons Why Season 4 WWE  legends of tomorrow SEAL Team Blindspot evo choked yts Alex Rider S01E01 Chicago Med Greys Anatomy baki agents of shield Americas Got Talent S15E02 Last Week Tonight snowpiercer etrg Man With a Plan S04E12 Gangs of London S01E07 killing eve  The Real Housewives of Beverly Hills S10E08 Billions S05E05 Deadliest Catch S16E08 ettv 2160p stargirl The Challenge S35E10 rq.mp4 Scoob! 2020 XXX The Hunt 2020 Space Force s01e02 Love life hindi Rick and Morty Billions westworld The Blackout Invasion Earth 2019 DCs Legends of Tomorrow S05E15 13 reasons why Rick and Morty S04E10 what we do in the shadows locke and key s01e06 minx ita what we do in the shadows S02e09 13 reasons why s04 ddr The 100 S07E03 0 the challenge dc week The 100 Jersey Shore Family Vacation S03E27 Chicago Fire hindi 2020 Marvels Agents of S.H.I.E.L.D. S07E02 etmovies Blindspot S05E04 harley quinn alex rider AEW ethd 
Warning! Use a VPN When Downloading Torrents!
Your IP Address is 34.204.168.209. Location United States
Your Internet Provider can see when you download torrents! Hide your IP Address with a VPN
ETTV warns: You should use VPN to hide your torrenting. HIDE ME NOW
ETTV Recommended TV Shows
The.100.S07E03.WEB.H264-ALiGN[ettv] torrent
Man.With.a.Plan.S04E12.720p.x265.ETRG torrent
In.the.Dark.2019.S02E08.HDTV.x264-SVA[ettv] torrent
Blindspot.S05E04.HDTV.x264-SVA[ettv] torrent

ETTV Recommended SD
Equal.Standard.2020.HDRip.XviD.AC3-EVO torrent
They.Reach.2020.BRRip.XviD.AC3-EVO torrent
Acrylic.2020.HDRip.XviD.AC3-EVO torrent
Think.Like.a.Dog.2020.BDRip.XviD.AC3-EVO torrent

ETTV Recommended HD
The.Deeper.You.Dig.2019.1080p.WEB-DL.H264.AC3-EVO[EtHD] torrent
The.Last.Days.of.American.Crime.2020.NF.WEB-DL.DDP2.0.x264-CMRG[EtHD] torrent
Shutter.Island.2010.BRRip.1080p.HEVC.HDR.Eng.DD5.1.ETRG torrent
Dating.Amber.2020.1080p.AMZN.WEBRip.X264.DD.5.1-EVO[EtHD] torrent

ETTV Recommended UHD
Last.Flag.Flying.2017.UHD.2160p.HDR.WebRip.DDP.5.1.HEVC-DDR.mkv torrent
Suicide.Squad.Hell.to.Pay.2018.MULTi.UHD.BluRay.2160p.HDR.DTS-HDMA.5.1.HEVC-DDR.mkv torrent
The.Shining.1980.BDRip.2160p.UHD.HDR.Eng.DTS-HD.MA.ETRG torrent
Shutter.Island.2010.BDRip.2160p.UHD.HDR.Eng.DTS-HD.MA.ETRG torrent

ETTV Recommended Cam
The Hunt 2020 HDCAM x264 AC3-ETRG torrent
The Burnt Orange Heresy 2020 720p HDCAM-C1NEM4 torrent

ETTV Recommended Foreign
Aani Kay Hava 2019 Season 1 Marathi 1080p Web-DL x264 AAC [TMB] torrent
Guardiani dei mondi (2018) [BluRay Rip 1080p ITA-RUS DTS-AC3 SUBS] [M@HD] torrent
Motel Acacia (2019) HDRip 720p [Hindi-Dub] Dual-Audio x264 - 1XCinema torrent
Captain Marvel (2019) [Tam+Hin+Tel+Eng - 720p - BDRip - x264 - DD 2.1 - MSub - 2GB] - MAZE torrent
Robotrix (1991) UNRATED 720p BluRay x264 Eng Subs [Dual Audio] [Hindi DD 2.0 - Chinese 2.0] Exclusive By -=!Dr.STAR!=- torrent
Sarileru Neekevvaru (2020) [TELUGU - 720p - WEB HDRip - x264 - DD 5.1 - MSub - 2GB] - MAZE torrent

Sponsored


Download Torrent "The.Healing.Powers.Of.Dude.S01.2160p.HDR.NF.WEBRip.DDP5.1.x265-TrollUHD"

IMDB Details
Description:

N/A

Genre:

N/A

Download Torrent (Magnet)
Download Torrent (File)
Seeds: 34
Leechers: 45
Completed: 68 
Last Checked: 27-01-2020 23:25:48


Details
Title:The.Healing.Powers.Of.Dude.S01.2160p.HDR.NF.WEBRip.DDP5.1.x265-TrollUHD
Description:


The Healing Powers of Dude (2020)



Info from E01

General
Complete name                            : The.Healing.Powers.Of.Dude.S01.2160p.HDR.NF.WEBRip.DDP5.1.x265-TrollUHD[rartv]/The.Healing.Powers.Of.Dude.S01E01.2160p.HDR.NF.WEBRip.DDP5.1.x265-TrollUHD.mkv
Format                                   : Matroska
Format version                           : Version 4 / Version 2
File size                                : 3.49 GiB
Duration                                 : 28 min 56 s
Overall bit rate                         : 17.3 Mb/s
Encoded date                             : UTC 2020-01-25 21:04:13
Writing application                      : mkvmerge v41.0.0 ('Smarra') 64-bit
Writing library                          : libebml v1.3.9 + libmatroska v1.5.2

Video
ID                                       : 1
Format                                   : HEVC
Format/Info                              : High Efficiency Video Coding
Format profile                           : Main [email protected]@High
Codec ID                                 : V_MPEGH/ISO/HEVC
Duration                                 : 28 min 56 s
Bit rate                                 : 16.3 Mb/s
Width                                    : 3 840 pixels
Height                                   : 2 160 pixels
Display aspect ratio                     : 16:9
Frame rate mode                          : Constant
Frame rate                               : 23.976 (24000/1001) FPS
Color space                              : YUV
Chroma subsampling                       : 4:2:0
Bit depth                                : 10 bits
Bits/(Pixel*Frame)                       : 0.082
Stream size                              : 3.29 GiB (94%)
Writing library                          : x265 3.2+35-acc5d16999e2:[Windows][MSVC 1924][64 bit] 10bit
Encoding settings                        : cpuid=1111039 / frame-threads=4 / numa-pools=28,0 / wpp / no-pmode / no-pme / no-psnr / no-ssim / log-level=2 / input-csp=1 / input-res=3840x2160 / interlace=0 / total-frames=0 / level-idc=51 / high-tier=1 / uhd-bd=0 / ref=5 / no-allow-non-conformance / repeat-headers / annexb / no-aud / no-hrd / info / hash=0 / no-temporal-layers / open-gop / min-keyint=23 / keyint=250 / gop-lookahead=0 / bframes=8 / b-adapt=2 / b-pyramid / bframe-bias=0 / rc-lookahead=40 / lookahead-slices=0 / scenecut=40 / hist-scenecut=0 / radl=0 / no-splice / no-intra-refresh / ctu=64 / min-cu-size=8 / no-rect / no-amp / max-tu-size=32 / tu-inter-depth=3 / tu-intra-depth=3 / limit-tu=0 / rdoq-level=1 / dynamic-rd=0.00 / no-ssim-rd / signhide / no-tskip / nr-intra=0 / nr-inter=0 / no-constrained-intra / strong-intra-smoothing / max-merge=5 / limit-refs=0 / no-limit-modes / me=3 / subme=4 / merange=57 / temporal-mvp / no-frame-dup / no-hme / weightp / weightb / no-analyze-src-pics / deblock=0:0 / no-sao / no-sao-non-deblock / rd=6 / selective-sao=0 / no-early-skip / rskip / no-fast-intra / no-tskip-fast / no-cu-lossless / b-intra / no-splitrd-skip / rdpenalty=0 / psy-rd=4.00 / psy-rdoq=8.00 / no-rd-refine / no-lossless / cbqpoffs=0 / crqpoffs=0 / rc=crf / crf=15.0 / qcomp=0.60 / qpstep=4 / stats-write=0 / stats-read=0 / vbv-maxrate=160000 / vbv-bufsize=160000 / vbv-init=0.9 / crf-max=0.0 / crf-min=0.0 / ipratio=1.40 / pbratio=1.30 / aq-mode=2 / aq-strength=1.00 / cutree / zone-count=0 / no-strict-cbr / qg-size=32 / no-rc-grain / qpmax=69 / qpmin=0 / no-const-vbv / sar=0 / overscan=0 / videoformat=5 / range=0 / colorprim=9 / transfer=16 / colormatrix=9 / chromaloc=0 / display-window=0 / master-display=G(13250,34500)B(7500,3000)R(34000,16000)WP(15635,16450)L(10000000,1) / cll=1162,172 / min-luma=0 / max-luma=1023 / log2-max-poc-lsb=8 / vui-timing-info / vui-hrd-info / slices=1 / no-opt-qp-pps / no-opt-ref-list-length-pps / no-multi-pass-opt-rps / scenecut-bias=0.05 / hist-threshold=0.01 / no-opt-cu-delta-qp / no-aq-motion / hdr10 / hdr10-opt / no-dhdr10-opt / no-idr-recovery-sei / analysis-reuse-level=0 / analysis-save-reuse-level=0 / analysis-load-reuse-level=0 / scale-factor=0 / refine-intra=0 / refine-inter=0 / refine-mv=1 / refine-ctu-distortion=0 / no-limit-sao / ctu-info=0 / no-lowpass-dct / refine-analysis-type=0 / copy-pic=1 / max-ausize-factor=1.0 / no-dynamic-refine / no-single-sei / no-hevc-aq / no-svt / no-field / qp-adaptation-range=1.00 / no-scenecut-aware-qpconformance-window-offsets / right=0 / bottom=0
Default                                  : Yes
Forced                                   : No
Color range                              : Limited
Color primaries                          : BT.2020
Transfer characteristics                 : SMPTE ST 2084
Matrix coefficients                      : BT.2020 non-constant
Mastering display color primaries        : R: x=0.680000 y=0.320000, G: x=0.265000 y=0.690000, B: x=0.150000 y=0.060000, White point: x=0.312700 y=0.329000
Mastering display luminance              : min: 0.0001 cd/m2, max: 1000.0000 cd/m2
Maximum Content Light Level              : 1162 cd/m2
Maximum Frame-Average Light Level        : 172 cd/m2

Audio
ID                                       : 2
Format                                   : E-AC-3
Format/Info                              : Enhanced Audio Coding 3
Format settings, Endianness              : Big
Codec ID                                 : A_EAC3
Duration                                 : 28 min 56 s
Bit rate mode                            : Constant
Bit rate                                 : 640 kb/s
Channel(s)                               : 6 channels
Channel positions                        : Front: L C R, Side: L R, LFE
Sampling rate                            : 48.0 kHz
Frame rate                               : 187.500 FPS (256 spf)
Compression mode                         : Lossy
Stream size                              : 133 MiB (4%)
Language                                 : English
Default                                  : Yes
Forced                                   : No

Subtitle: English,Arabic,Czech,Danish,German,Spanish,Finnish,French,
Hebrew,Hungarian,Indonesian,Italian,Japanese,Korean,Norwegian,Dutch,
Polish,Portuguese,Romanian,Russian,Swedish,Turkish,Vietnamese,Chinese

Source - Netflix

Encoded By - trolluhd

https://www.imdb.com/title/tt10540562/



Stars: Jace Chapman, Larisa Oleynik, Mauricio Lara 



Noah, an 11-year-old boy with social anxiety disorder, has to start middle school, he turns to a mutt named Dude, a sarcastic emotional support dog who might need Noah as much as Noah needs him.



Screenshots from E01





 


Category:TV > UltraHD/4K
Lang:Unknown/NA
Total Size:26.82 GB
Info Hash:c118467b472c0172fae0dcc6a8ccfdf55f70cdb6
Added By:Will1869
Date Added:27-01-2020 23:25:45

  

Files

File List: 
 File Size
The.Healing.Powers.Of.Dude.S01E01.2160p.HDR.NF.WEBRip.DDP5.1.x265-TrollUHD.mkv3.49 GB
The.Healing.Powers.Of.Dude.S01E02.2160p.HDR.NF.WEBRip.DDP5.1.x265-TrollUHD.mkv3.03 GB
The.Healing.Powers.Of.Dude.S01E03.2160p.HDR.NF.WEBRip.DDP5.1.x265-TrollUHD.mkv3.31 GB
The.Healing.Powers.Of.Dude.S01E04.2160p.HDR.NF.WEBRip.DDP5.1.x265-TrollUHD.mkv3.13 GB
The.Healing.Powers.Of.Dude.S01E05.2160p.HDR.NF.WEBRip.DDP5.1.x265-TrollUHD.mkv3.87 GB
The.Healing.Powers.Of.Dude.S01E06.2160p.HDR.NF.WEBRip.DDP5.1.x265-TrollUHD.mkv2.84 GB
The.Healing.Powers.Of.Dude.S01E07.2160p.HDR.NF.WEBRip.DDP5.1.x265-TrollUHD.mkv3.62 GB
The.Healing.Powers.Of.Dude.S01E08.2160p.HDR.NF.WEBRip.DDP5.1.x265-TrollUHD.mkv3.53 GB



Comments

There are currently no comments. Be the first one to write something !