the 100 Perry Mason Blindspot Below Deck Mediterranean S05E11 Legacy of Lies 2020 The Secret Garden 2020 last week tonight Deathstroke Knights and Dragons - The Movie 2020 Wynonna Earp S04E03 Homefront 2013 Wentworth 90 Day Fiance The Other Way S02E11 ethd 90 Day Fiance Happily Ever After S05E09 Chicago Fire The Tax Collector 2020 Coma 2019 ettv the alienist The Secret Dare to Dream 2020 yellowstone Waiting for the Barbarians 2020 ddr The Rental 2020 An American Pickle 2020 The Fugitive S01E01 2160p wwe Unhinged 2020 Hindi Deep Blue Sea 3 2020 Star Trek Lower Decks S01E01 Made in Italy 2020 The Outpost 2020 The Old Guard 2020 The Titan Games S02E12 Alienist Doom Patrol s02e09 Yellowstone S03E08 Stargirl S01E13 Greyhound 2020 xxx SUPERNATURAL  etrg UFC american dad Greenland 2020 Black Water Abyss 2020 Peninsula 2020 P-Valley S01E05 etmovies The Alienist S02E07 Work It 2020 Big Brother S22E02 Mulan 2020 Perry Mason S01E08 stargirl The Alienist S02E08 wynonna earp yts Ava 2020 ita Mortal 2020 Yellowstone S03E07 evo 0 nos4a2 rq.mp4 The Chi S03E08 doom patrol 
Warning! Use a VPN When Downloading Torrents!
Your IP Address is 34.200.222.93. Location United States
Your Internet Provider can see when you download torrents! Hide your IP Address with a VPN
ETTV warns: You should use VPN to hide your torrenting. HIDE ME NOW
ETTV Recommended TV Shows
The.Titan.Games.S02E12.WEB.h264-TRUMP[ettv] torrent
This Is Us (2016) Season 4 S04 (1080p AMZN WEB-DL x265 HEVC 10bit EAC3 5.1 Silence) [QxR] torrent
Holby.City.S22E25.HDTV.x264-RiVER[ettv] torrent
Stargirl.S01.720p.x265-ZMNT torrent

ETTV Recommended SD
Gutterbug.2019.HDRip.XviD.AC3-EVO[EtMovies] torrent
Pearl.2020.HDRip.XviD.AC3-EVO[EtMovies] torrent
Uncle.Peckerhead.2020.HDRip.XviD.AC3-EVO[EtMovies] torrent
G-Loc.2020.HDRip.XviD.AC3-EVO[EtMovies] torrent

ETTV Recommended HD
The.Deer.Hunter.1978.720p.BluRay.x264-Mkvking torrent
Golden Eye (1995)-JAMES BOND-[Pierce Brosnan] 1080p H264 DolbyD 5.1 ūüíé nickarad torrent
Peppermint 2018 1080p FLAC MKV (oan) torrent
Fahrenheit 451 (1966) (1080p BluRay x265 HEVC 10bit AAC 2.0 r00t) [QxR] torrent

ETTV Recommended UHD
Star Wars Return of the Jedi 1983 2160p UHD-Film OTD83 v1.0 oohteedee torrent
The.Secret.Garden.2020.HDR.2160p.DDP.5.1.HEVC-DDR.mkv torrent
Ballon.2018.BluRay.2160p.HDR.Atmos.7.1.HEVC-DDR.mkv torrent
The.Good.the.Bad.and.the.Ugly.1966.EXTENDED.4K.HDR.2160p.WEBDL Ita Eng x265-NAHOM torrent

ETTV Recommended Cam
The Hunt 2020 HDCAM x264 AC3-ETRG torrent
The Burnt Orange Heresy 2020 720p HDCAM-C1NEM4 torrent

ETTV Recommended Foreign
Boogeyman II (2007) 720p BluRay x264 Eng Subs [Dual Audio] [Hindi DD 2.0 - English 2.0] Exclusive By -=!Dr.STAR!=- torrent
Bachchan.2014.Bangali.1080p.AMZN.WEB-DL.DDP2.0.H.264-Telly torrent
El Chicano (2018) BluRay 1080p.H264 Ita Eng AC3 5.1 Sub Ita Eng MIRCrew torrent
Who Framed Roger Rabbit - Chi ha incastrato Roger Rabbit (1988) AC3 5.1 ITA.ENG 1080p H265 sub ita.eng Sp33dy94 MIRCrew torrent
Bloodshot.2020.1080p.AMZN.WEB-DL.HIN-Multi.DDP5.1.H.264-Telly torrent
Failan (2001) + Extras (1080p BluRay x265 HEVC 10bit AAC 5.1 Korean r00t) [QxR] torrent

ETTV Recommended Music
Headdock - Techno Syndrome 09-08-2020 [2CD] [2Bonus CD] {1337x} torrent
Queen  - Innuendo - 1991 - MP3 - 320KBPS - G&U torrent
Billboard Hot 100 Singles Chart (15-Aug-2020) Mp3 320kbps Songs [PMEDIA] ‚≠źÔłŹ torrent
Deep Purple - Whoosh! (2020) [Vinyl-Rip] 24-96  torrent
[funk, jazz, psychedelic rock] (2020) The Heliocentrics - Telemetric Sounds [FLAC] [DarkAngie] torrent
150 Tracks ~This Is ZZ Top Songs  Playlist Spotify  Mp3~[320]  kbps Beats‚≠ź torrent


Download Torrent "18+.2050.2019.1080p.WEB-DL.H264.AC3"

IMDB Details
Description:

N/A

Genre:

N/A

Download Torrent (Magnet)
Download Torrent (File)

Seeds: 72
Leechers: 169

Uploaded by:
LifeLongg


Category:
Movies > HD 1080p (Great for large screens)


Details
Title:18+.2050.2019.1080p.WEB-DL.H264.AC3
Description:




******************************Thumbnail:**********************




******************************Screenshots:******************** 

Screenshot 1

Screenshot 2

Screenshot 3

Screenshot 4

Screenshot 5

Screenshot 6

Screenshot 7

Screenshot 8

Screenshot 9

Screenshot 0

********************************************************** 

18+.2050.2019.1080p.WEB-DL.H264.AC3.mp4
Format                                   : MPEG-4
Format profile                           : Base Media
Codec ID                                 : isom (isom/iso2/avc1/mp41)
File size                                : 2.53 GiB
Duration                                 : 1 h 46 min
Overall bit rate mode                    : Variable
Overall bit rate                         : 3 400 kb/s
Writing application                      : Lavf57.83.100

Video
ID                                       : 1
Format                                   : AVC
Format/Info                              : Advanced Video Codec
Format profile¬† ¬† ¬† ¬† ¬† ¬† ¬† ¬† ¬† ¬† ¬† ¬† ¬† ¬†: [email protected]
Format settings                          : CABAC / 1 Ref Frames
Format settings, CABAC                   : Yes
Format settings, Reference frames        : 1 frame
Codec ID                                 : avc1
Codec ID/Info                            : Advanced Video Coding
Duration                                 : 1 h 46 min
Bit rate mode                            : Variable
Bit rate                                 : 3 013 kb/s
Maximum bit rate                         : 9 000 kb/s
Width                                    : 1 920 pixels
Height                                   : 810 pixels
Display aspect ratio                     : 2.40:1
Frame rate mode                          : Constant
Frame rate                               : 23.976 (23976/1000) FPS
Color space                              : YUV
Chroma subsampling                       : 4:2:0
Bit depth                                : 8 bits
Scan type                                : Progressive
Bits/(Pixel*Frame)                       : 0.081
Stream size                              : 2.24 GiB (89%)
Language                                 : English
Menus                                    : 3
Codec configuration box                  : avcC

Audio
ID                                       : 2
Format                                   : AC-3
Format/Info                              : Audio Coding 3
Commercial name                          : Dolby Digital
Codec ID                                 : ac-3
Duration                                 : 1 h 46 min
Bit rate mode                            : Constant
Bit rate                                 : 384 kb/s
Channel(s)                               : 6 channels
Channel layout                           : L R C LFE Ls Rs
Sampling rate                            : 48.0 kHz
Frame rate                               : 31.250 FPS (1536 SPF)
Compression mode                         : Lossy
Stream size                              : 293 MiB (11%)
Language                                 : English
Service kind                             : Complete Main



********************************************************** 




Category:Movies > HD 1080p
Lang:English  English
Total Size:2.55 GB
Info Hash:aefe0a533283b9aaaf0d4167ae738225fb286e0d
Added By:LifeLongg
Date Added:15-01-2020 01:07:51

Files

File List: 
 File Size
18+.2050.2019.1080p.WEB-DL.H264.AC3.mp42.53 GB
SAMPLE.ts16 MB



Comments

There are currently no comments. Be the first one to write something !