money heist s04 The Walking Dead S10E14 Dolittle 2020 Frozen II 2019 yts  WWE The Platform 2019 MacGyver S04E08 Tiger King Murder, Mayhem and Madness S01E01 Star Wars The Rise of Skywalker 2019 contagion 2011 tales from the loop How to Get Away with Murder S06E10 Knives Out 2019 yts hindi the blacklist Vivarium 2020 The Hunt 2020 blue bloods the walking dead Devs ddr birds of prey (and the fantabulous emancipation of one harley quinn) 2020 money heist Trolls World Tour 2020 etmovies RuPauls Drag Race S12E06 Hawaii Five-0 S10E22 Real Time with Bill Maher S18E09 Brooklyn Nine-Nine S07E10 Bad Boys for Life 2020 Ozark s03e05 Future Man The Call of the Wild 2020 Bloodshot 2020 money heist season 4 evo The Invisible Man 2020 walking dead westworld s03e03 Future Man s03e02 Jumanji The Next Level 2019 onward 2020 the walking dead s10e15 Blue Bloods S10E17 Underwater 2020 The Way Back 2020 rq.mp4 Sonic the Hedgehog 2020 greys anatomy s16e20 Station 19 S03E11 Greys Anatomy Tiger King la casa di carta The Blacklist S07E13 The Banker 2020 xxx Fantasy Island 2020 gold rush Impractical Jokers The Movie 2020 La casa de papel The Gentlemen 2019 ethd etrg westworld bad boys for life 1917 2019 ettv young sheldon s03e19 The Gentlemen 2020 
ETTV Recommended TV Shows
The.Walking.Dead.S10E15.WEB.H264-XLF[ettv] torrent
Hawaii.Five-0.2010.S10E22.HDTV.x264-SVA[ettv] torrent
Homeland.S08E09.WEB.H264-XLF[ettv] torrent
Black.Monday.S02E05.WEBRip.x264-XLF[ettv] torrent

ETTV Recommended SD
Brahms.The.Boy.II.2020.AMZN.HDRip.XViD-ETRG torrent
Shooting.Heroin.2020.HDRip.XviD.AC3-EVO torrent
It.Must.Be.Heaven.2019.HC.HDRip.XviD.AC3-EVO torrent
A.Rebel.Born.2020.HDRip.XviD.AC3-EVO torrent

ETTV Recommended HD
Shooting.Heroin.2020.1080p.WEB-DL.H264.AC3-EVO[EtHD] torrent
It.Must.Be.Heaven.2019.HC.1080p.WEB-DL.H264.AC3-EVO[EtHD] torrent
A.Rebel.Born.2020.1080p.WEB-DL.H264.AAC-EVO[EtHD] torrent
Seven.Stages.To.Achieve.Eternal.Bliss.2020.1080p.WEB-DL.H264.AC3-EVO[EtHD] torrent

ETTV Recommended UHD
Seven.Worlds.One.Planet.2019.2160p.UHD.BluRay.2160p.HDR.Atmos.TrueHD7.1.HEVC-DDR torrent
Dolphin.Reef.2020.UHD.2160p.WebRip.HDR.DDP.5.1.HEVC-DDR.mkv torrent
Hulk.2003.BDRip.2160p.UHD.HDR.Eng.Fre.DTS-HDMA.ETRG torrent
The.Incredible.Hulk.2008.BDRip.2160p.UHD.HDR.Eng.DTS.ETRG torrent

ETTV Recommended Cam
My Spy 2020 HDCAM x264 AC3-ETRG torrent
The Hunt 2020 HDCAM x264 AC3-ETRG torrent
The Burnt Orange Heresy 2020 720p HDCAM-C1NEM4 torrent
Fantasy Island 2020 UNRATED HDTS XViD AC3-ETRG torrent

ETTV Recommended Foreign
Frozen II 2019.1080p.DSNP+.WEB-DL.Hin-Multi.AAC.2.0.H264-Telly torrent
Jexi (2019) ITA-ENG Ac3 5.1 BDRip 1080p H264 [ArMor] torrent
Astro (2018) 720p WEBRip x264 Eng Subs [Dual Audio] [Hindi DD 2.0 - English 2.0] Exclusive By -=!Dr.STAR!=- torrent
The.Invisible.Man.2020.BDRip 1080p Ita Eng x265-NAHOM torrent


Download Torrent "The Chronicles Of Narnia - The Lion, The Witch And The Wardrobe (2005) Open..."

IMDB Details
Description:

Four kids travel through a wardrobe to the land of Narnia and learn of their destiny to free it with the guidance of a mystical lion.

Genre:

Adventure, Family, Fantasy

Download Torrent (Magnet)
Seeds: 113
Leechers: 59
Completed: 3,557 
Last Checked: 29-12-2019 14:23:15


Details
Title:The Chronicles Of Narnia - The Lion, The Witch And The Wardrobe (2005) Open...
Description:






Media Information
General
Format                                   : Matroska
Format version                           : Version 4 / Version 2
File size                                : 2.76 GiB
Duration                                 : 2 h 23 min
Overall bit rate                         : 2 759 kb/s
Encoded date                             : UTC 2019-10-16 12:07:36
Writing application                      : mkvmerge v37.0.0 ('Leave It') 64-bit
Writing library                          : libebml v1.3.9 + libmatroska v1.5.2
Cover                                    : Yes
Attachments                              : cover.jpg

Video
ID                                       : 1
Format                                   : HEVC
Format/Info                              : High Efficiency Video Coding
Format profile                           : Main [email protected]@Main
Codec ID                                 : V_MPEGH/ISO/HEVC
Duration                                 : 2 h 23 min
Bit rate                                 : 2 501 kb/s
Width                                    : 1 920 pixels
Height                                   : 1 080 pixels
Display aspect ratio                     : 16:9
Frame rate mode                          : Constant
Frame rate                               : 23.976 (24000/1001) FPS
Color space                              : YUV
Chroma subsampling                       : 4:2:0
Bit depth                                : 10 bits
Bits/(Pixel*Frame)                       : 0.050
Stream size                              : 2.50 GiB (91%)
Writing library                          : x265 2.9:[Windows][GCC 8.2.0][64 bit] 10bit
Encoding settings                        : cpuid=1111039 / frame-threads=2 / numa-pools=4 / wpp / no-pmode / no-pme / no-psnr / no-ssim / log-level=2 / input-csp=1 / input-res=1920x1080 / interlace=0 / total-frames=0 / level-idc=0 / high-tier=1 / uhd-bd=0 / ref=5 / no-allow-non-conformance / no-repeat-headers / annexb / no-aud / no-hrd / info / hash=0 / no-temporal-layers / open-gop / min-keyint=24 / keyint=240 / gop-lookahead=0 / bframes=8 / b-adapt=2 / b-pyramid / bframe-bias=0 / rc-lookahead=40 / lookahead-slices=0 / scenecut=40 / radl=0 / no-intra-refresh / ctu=64 / min-cu-size=8 / rect / amp / max-tu-size=32 / tu-inter-depth=3 / tu-intra-depth=3 / limit-tu=4 / rdoq-level=2 / dynamic-rd=0.00 / no-ssim-rd / signhide / no-tskip / nr-intra=0 / nr-inter=0 / no-constrained-intra / strong-intra-smoothing / max-merge=4 / limit-refs=1 / limit-modes / me=3 / subme=4 / merange=57 / temporal-mvp / weightp / weightb / no-analyze-src-pics / deblock=-3:-3 / no-sao / no-sao-non-deblock / rd=6 / no-early-skip / rskip / no-fast-intra / no-tskip-fast / no-cu-lossless / b-intra / no-splitrd-skip / rdpenalty=0 / psy-rd=2.00 / psy-rdoq=1.00 / no-rd-refine / no-lossless / cbqpoffs=0 / crqpoffs=0 / rc=abr / bitrate=2500 / qcomp=0.60 / qpstep=4 / stats-write=0 / stats-read=2 / cplxblur=20.0 / qblur=0.5 / ipratio=1.40 / pbratio=1.30 / aq-mode=1 / aq-strength=1.00 / cutree / zone-count=0 / no-strict-cbr / qg-size=32 / no-rc-grain / qpmax=69 / qpmin=0 / no-const-vbv / sar=1 / overscan=0 / videoformat=5 / range=0 / colorprim=1 / transfer=1 / colormatrix=1 / chromaloc=0 / display-window=0 / max-cll=0,0 / min-luma=0 / max-luma=1023 / log2-max-poc-lsb=8 / vui-timing-info / vui-hrd-info / slices=1 / no-opt-qp-pps / no-opt-ref-list-length-pps / no-multi-pass-opt-rps / scenecut-bias=0.05 / no-opt-cu-delta-qp / no-aq-motion / no-hdr / no-hdr-opt / no-dhdr10-opt / no-idr-recovery-sei / analysis-reuse-level=5 / scale-factor=0 / refine-intra=0 / refine-inter=0 / refine-mv=0 / no-limit-sao / ctu-info=0 / no-lowpass-dct / refine-mv-type=0 / copy-pic=1 / max-ausize-factor=1.0 / no-dynamic-refine / no-single-sei
Default                                  : Yes
Forced                                   : No
Color range                              : Limited
Color primaries                          : BT.709
Transfer characteristics                 : BT.709
Matrix coefficients                      : BT.709

Audio
ID                                       : 2
Format                                   : AAC
Format/Info                              : Advanced Audio Codec
Format profile                           : LC
Codec ID                                 : A_AAC
Duration                                 : 2 h 23 min
Bit rate                                 : 256 kb/s
Channel(s)                               : 6 channels
Channel positions                        : Front: L C R, Side: L R, LFE
Sampling rate                            : 48.0 kHz
Frame rate                               : 46.875 FPS (1024 spf)
Compression mode                         : Lossy
Delay relative to video                  : -21 ms
Stream size                              : 262 MiB (9%)
Title                                    : Surround
Language                                 : English
Default                                  : Yes
Forced                                   : No

Subtitle
ID                                       : 3
Format                                   : UTF-8
Codec ID                                 : S_TEXT/UTF8
Codec ID/Info                            : UTF-8 Plain Text
Duration                                 : 2 h 21 min
Bit rate                                 : 99 b/s
Count of elements                        : 1451
Stream size                              : 104 KiB (0%)
Title                                    : SDH - ENG
Language                                 : English
Default                                  : Yes
Forced                                   : No

Menu
00:00:00.000                             : :Introduction
00:07:07.636                             : :Mrs. MacReady
00:11:15.133                             : :The Wardrobe
00:18:23.227                             : :Mr. Tumnus' House
00:24:34.223                             : :Just Your Imagination
00:29:45.867                             : :Hail the Queen!
00:34:55.802                             : :Peter, Wake Up!
00:39:29.909                             : :The World of Narnia
00:46:51.100                             : :Beavers' Home
00:50:23.395                             : :Behold the Queen's Castle
00:56:43.150                             : :They're After Us!
01:01:15.547                             : :The Queen's Lair
01:12:16.874                             : :Across the Melting River
01:18:57.316                             : :Aslan's Camp
01:24:36.405                             : :Sir Peter
01:31:49.879                             : :The Lion and the Witch
01:37:41.689                             : :Aslan's Sacrifice
01:46:13.617                             : :You Have to Lead Us
01:49:13.922                             : :Battle for Narnia
01:52:39.211                             : :Aslan's Resurrection
01:55:00.811                             : :Phoenix
01:59:29.204                             : :Peter vs. the Witch
02:05:30.023                             : :The Royal Coronation
02:11:34.136                             : :Credits



Source Information
Release: 
The Chronicles of Narnia & The Lion, the Witch and the Wardrobe 2005 Open Matte 1080p WEB-DL MPEG4 DD5.1 ~ (12gb)



Note From UTR
Whilst we are happy for our releases to be re-posted on a platform we aren't on, please do so in an 'as-is' format. We ask that you do not create a new torrent, include all descriptions you see above including the UTR logo, tags, notes and screenshots. If you'd like to become a permanent poster on a website we don't post to, feel free to get in contact with a UTR member.
If possible please donate for seedboxes.
BTC - 1QA5fum5AyXvWzdVCkQzUNvw3Ef15fHRaR
Monero - 8AuksPSzY7fen3HHT1a2342PgVy4J93MKfXG3AAcayV76miTyJ3sNfn38srwrpLirGfeR5DwhTL8GW8pdQgT7bZcJ25ynMx
Dash - Xh4mNs6uwZdpCEX2HSEVwGvPD7yKxZ1Ccd
Ethereum - 0x51c06c94e74c16735a7a6e841ad29fc90a84eb1f


Category:Movies > HEVC/x265
Lang:English  English
Total Size:2.76 GB
Info Hash:d3df622afb7abbb73cae56f617079b1ed30c14ee
Added By:UTR
Date Added:29-12-2019 14:23:07

Files

File List: 
 File Size
The Chronicles Of Narnia - The Lion, The Witch And The Wardrobe (2005) Open Matte (Web-DL 1080p x265 HEVC 10bit 5.1 RN) [UTR].mkv2.76 GB



Comments

There are currently no comments. Be the first one to write something !