the 100 Perry Mason Blindspot Below Deck Mediterranean S05E11 Legacy of Lies 2020 The Secret Garden 2020 last week tonight Deathstroke Knights and Dragons - The Movie 2020 Wynonna Earp S04E03 Homefront 2013 Wentworth 90 Day Fiance The Other Way S02E11 ethd 90 Day Fiance Happily Ever After S05E09 Chicago Fire The Tax Collector 2020 Coma 2019 ettv the alienist The Secret Dare to Dream 2020 yellowstone Waiting for the Barbarians 2020 ddr The Rental 2020 An American Pickle 2020 The Fugitive S01E01 2160p wwe Unhinged 2020 Hindi Deep Blue Sea 3 2020 Star Trek Lower Decks S01E01 Made in Italy 2020 The Outpost 2020 The Old Guard 2020 The Titan Games S02E12 Alienist Doom Patrol s02e09 Yellowstone S03E08 Stargirl S01E13 Greyhound 2020 xxx SUPERNATURAL  etrg UFC american dad Greenland 2020 Black Water Abyss 2020 Peninsula 2020 P-Valley S01E05 etmovies The Alienist S02E07 Work It 2020 Big Brother S22E02 Mulan 2020 Perry Mason S01E08 stargirl The Alienist S02E08 wynonna earp yts Ava 2020 ita Mortal 2020 Yellowstone S03E07 evo 0 nos4a2 rq.mp4 The Chi S03E08 doom patrol 
Warning! Use a VPN When Downloading Torrents!
Your IP Address is 3.219.167.194. Location United States
Your Internet Provider can see when you download torrents! Hide your IP Address with a VPN
ETTV warns: You should use VPN to hide your torrenting. HIDE ME NOW
ETTV Recommended TV Shows
Holby.City.S22E25.HDTV.x264-RiVER[ettv] torrent
Greenleaf.S05E08.720p.WEBRip.x264-OATH[ettv] torrent
Wentworth.S08E03.1080p.HEVC.x265.MeGusta.ETRG torrent
World.of.Dance.S04E11.WEB.h264-TRUMP[ettv] torrent

ETTV Recommended SD
Pearl.2020.HDRip.XviD.AC3-EVO[EtMovies] torrent
Uncle.Peckerhead.2020.HDRip.XviD.AC3-EVO[EtMovies] torrent
G-Loc.2020.HDRip.XviD.AC3-EVO[EtMovies] torrent
Ballbuster.2020.HDRip.XviD.AC3-EVO[EtMovies] torrent

ETTV Recommended HD
Rook.2020.1080p.WEBRip.X264.DD.2.0-EVO[EtHD] torrent
Uncle.Peckerhead.2020.1080p.WEBRip.X264.DD.5.1-EVO[EtHD] torrent
G-Loc.2020.1080p.WEBRip.X264.DD.5.1-EVO[EtHD] torrent
Ballbuster.2020.1080p.WEBRip.X264.DD.5.1-EVO[EtHD] torrent

ETTV Recommended UHD
Star Wars Return of the Jedi 1983 2160p UHD-Film OTD83 v1.0 oohteedee torrent
The.Secret.Garden.2020.HDR.2160p.DDP.5.1.HEVC-DDR.mkv torrent
Ballon.2018.BluRay.2160p.HDR.Atmos.7.1.HEVC-DDR.mkv torrent
The.Good.the.Bad.and.the.Ugly.1966.EXTENDED.4K.HDR.2160p.WEBDL Ita Eng x265-NAHOM torrent

ETTV Recommended Cam
The Hunt 2020 HDCAM x264 AC3-ETRG torrent
The Burnt Orange Heresy 2020 720p HDCAM-C1NEM4 torrent

ETTV Recommended Foreign
The King's Guard (2003) 480p WEB-DL x264 Eng Subs [Dual Audio] [Hindi DD 2.0 - English 2.0] Exclusive By -=!Dr.STAR!=- torrent
The Babysitter (2017) 1080p NF WEB-DL [Hindi + English] x264 DD+5.1 ESubs 1.5GB - MOVCR torrent
Les.démons.AKA.The.Demons.2015.WEB-DL.720p.h264.AC3-DEEP torrent
Gunjan.Saxena.The.Kargil.Girl.2020.720p.NF.WEB-DL.HIN-MultiDDP5.1.x264-Telly torrent
Ladyhawke (1985) AC3 5.1 ITA.ENG 1080p H265 sub ita.eng Sp33dy94 MIRCrew torrent
[18+] Angels Fallen (2020) x264 720p UNRATED WEB-DL {Dual Audio} [Hindi DD 2.0 + English 2.0] Exclusive By DREDD torrent

ETTV Recommended Music
Headdock - Techno Syndrome 09-08-2020 [2CD] [2Bonus CD] {1337x} torrent
Queen  - Innuendo - 1991 - MP3 - 320KBPS - G&U torrent
Deep Purple - Whoosh! (2020) [Vinyl-Rip] 24-96  torrent
[alt-country, indie-rock] (2020) The Jayhawks - XOXO [Limited Edition] [FLAC] [DarkAngie] torrent
150 Tracks 50's Rock 'N' Roll ~Songs  Playlist Spotify Mp3~ [320]  kbps Beats⭐ torrent
VA - Summertime Songs Essentials (2020) Mp3 320kbps [PMEDIA] ⭐️ torrent


Download Torrent "Percy Jackson & The Olympians - The Lightning Thief (2010) Open Matte (..."

IMDB Details
Description:

A teenager discovers he's the descendant of a Greek god and sets out on an adventure to settle an on-going battle between the gods.

Genre:

Adventure, Family, Fantasy

Download Torrent (Magnet)
Download Torrent (File)

Seeds: 157
Leechers: 15

Uploaded by:
UTR


Category:
Movies > HEVC/x265 (Super High Quality, Small size, high CPU usage)


Details
Title:Percy Jackson & The Olympians - The Lightning Thief (2010) Open Matte (...
Description:






Media Information

Media Information
General
Format                                   : Matroska
Format version                           : Version 4 / Version 2
File size                                : 2.29 GiB
Duration                                 : 1 h 58 min
Overall bit rate                         : 2 760 kb/s
Encoded date                             : UTC 2019-11-01 13:18:26
Writing application                      : mkvmerge v37.0.0 ('Leave It') 64-bit
Writing library                          : libebml v1.3.9 + libmatroska v1.5.2
Cover                                    : Yes
Attachments                              : cover.jpg

Video
ID                                       : 1
Format                                   : HEVC
Format/Info                              : High Efficiency Video Coding
Format profile                           : Main [email protected]@Main
Codec ID                                 : V_MPEGH/ISO/HEVC
Duration                                 : 1 h 58 min
Bit rate                                 : 2 501 kb/s
Width                                    : 1 920 pixels
Height                                   : 1 080 pixels
Display aspect ratio                     : 16:9
Frame rate mode                          : Constant
Frame rate                               : 23.976 (24000/1001) FPS
Color space                              : YUV
Chroma subsampling                       : 4:2:0
Bit depth                                : 10 bits
Bits/(Pixel*Frame)                       : 0.050
Stream size                              : 2.07 GiB (91%)
Writing library                          : x265 2.9:[Windows][GCC 8.2.0][64 bit] 10bit
Encoding settings                        : cpuid=1111039 / frame-threads=2 / numa-pools=4 / wpp / no-pmode / no-pme / no-psnr / no-ssim / log-level=2 / input-csp=1 / input-res=1920x1080 / interlace=0 / total-frames=0 / level-idc=0 / high-tier=1 / uhd-bd=0 / ref=5 / no-allow-non-conformance / no-repeat-headers / annexb / no-aud / no-hrd / info / hash=0 / no-temporal-layers / open-gop / min-keyint=24 / keyint=240 / gop-lookahead=0 / bframes=8 / b-adapt=2 / b-pyramid / bframe-bias=0 / rc-lookahead=40 / lookahead-slices=0 / scenecut=40 / radl=0 / no-intra-refresh / ctu=64 / min-cu-size=8 / rect / amp / max-tu-size=32 / tu-inter-depth=3 / tu-intra-depth=3 / limit-tu=4 / rdoq-level=2 / dynamic-rd=0.00 / no-ssim-rd / signhide / no-tskip / nr-intra=0 / nr-inter=0 / no-constrained-intra / strong-intra-smoothing / max-merge=4 / limit-refs=1 / limit-modes / me=3 / subme=4 / merange=57 / temporal-mvp / weightp / weightb / no-analyze-src-pics / deblock=-3:-3 / no-sao / no-sao-non-deblock / rd=6 / no-early-skip / rskip / no-fast-intra / no-tskip-fast / no-cu-lossless / b-intra / no-splitrd-skip / rdpenalty=0 / psy-rd=2.00 / psy-rdoq=1.00 / no-rd-refine / no-lossless / cbqpoffs=0 / crqpoffs=0 / rc=abr / bitrate=2500 / qcomp=0.60 / qpstep=4 / stats-write=0 / stats-read=2 / cplxblur=20.0 / qblur=0.5 / ipratio=1.40 / pbratio=1.30 / aq-mode=3 / aq-strength=1.00 / cutree / zone-count=0 / no-strict-cbr / qg-size=32 / no-rc-grain / qpmax=69 / qpmin=0 / no-const-vbv / sar=1 / overscan=0 / videoformat=5 / range=0 / colorprim=1 / transfer=1 / colormatrix=1 / chromaloc=0 / display-window=0 / max-cll=0,0 / min-luma=0 / max-luma=1023 / log2-max-poc-lsb=8 / vui-timing-info / vui-hrd-info / slices=1 / no-opt-qp-pps / no-opt-ref-list-length-pps / no-multi-pass-opt-rps / scenecut-bias=0.05 / no-opt-cu-delta-qp / no-aq-motion / no-hdr / no-hdr-opt / no-dhdr10-opt / no-idr-recovery-sei / analysis-reuse-level=5 / scale-factor=0 / refine-intra=0 / refine-inter=0 / refine-mv=0 / no-limit-sao / ctu-info=0 / no-lowpass-dct / refine-mv-type=0 / copy-pic=1 / max-ausize-factor=1.0 / no-dynamic-refine / no-single-sei
Default                                  : Yes
Forced                                   : No
Color range                              : Limited
Color primaries                          : BT.709
Transfer characteristics                 : BT.709
Matrix coefficients                      : BT.709

Audio
ID                                       : 3
Format                                   : AAC
Format/Info                              : Advanced Audio Codec
Format profile                           : LC
Codec ID                                 : A_AAC
Duration                                 : 1 h 58 min
Bit rate                                 : 256 kb/s
Channel(s)                               : 6 channels
Channel positions                        : Front: L C R, Side: L R, LFE
Sampling rate                            : 48.0 kHz
Frame rate                               : 46.875 FPS (1024 spf)
Compression mode                         : Lossy
Delay relative to video                  : -21 ms
Stream size                              : 218 MiB (9%)
Title                                    : Surround
Language                                 : English
Default                                  : Yes
Forced                                   : No

Subtitle
ID                                       : 2
Format                                   : UTF-8
Codec ID                                 : S_TEXT/UTF8
Codec ID/Info                            : UTF-8 Plain Text
Duration                                 : 1 h 58 min
Bit rate                                 : 170 b/s
Count of elements                        : 2214
Stream size                              : 147 KiB (0%)
Language                                 : English
Default                                  : Yes
Forced                                   : No



Source Information
Release: 
Percy.Jackson.&.the.Olympians.The.Lightning.Thief.2010.Open.Matte.1080p.WEB-DL.2xRus.Eng ~ (12.5gb)



Note From UTR
Whilst we are happy for our releases to be re-posted on a platform we aren't on, please do so in an 'as-is' format. We ask that you do not create a new torrent, include all descriptions you see above including the UTR logo, tags, notes and screenshots. If you'd like to become a permanent poster on a website we don't post to, feel free to get in contact with a UTR member.
If possible please donate for seedboxes.
BTC - 1QA5fum5AyXvWzdVCkQzUNvw3Ef15fHRaR
Monero - 8AuksPSzY7fen3HHT1a2342PgVy4J93MKfXG3AAcayV76miTyJ3sNfn38srwrpLirGfeR5DwhTL8GW8pdQgT7bZcJ25ynMx
Dash - Xh4mNs6uwZdpCEX2HSEVwGvPD7yKxZ1Ccd
Ethereum - 0x51c06c94e74c16735a7a6e841ad29fc90a84eb1f


Category:Movies > HEVC/x265
Lang:English  English
Total Size:2.29 GB
Info Hash:0d4c9026f0e6ecab9832e200b0cddfdcc30d9c52
Added By:UTR
Date Added:29-12-2019 14:19:26

Files

File List: 
 File Size
Percy Jackson & The Olympians - The Lightning Thief (2010) Open Matte (Web-DL 1080p x265 HEVC 10bit AAC 5.1 RN) [UTR].mkv2.29 GB



Comments

There are currently no comments. Be the first one to write something !