Birds of Prey (and the Fantabulous Emancipation of One Harley Quinn) 2020 Marvels Agents of S H I E L D S07E01 XXX supergirl Jeffrey Epstein Filthy Rich s01e01 The Lovebirds 2020 What We Do in the Shadows S02E08 mrs america etrg Billions grant aew Marvels Agents of S.H.I.E.L.D. S07E01 Bad Boys for Life 2020 evo Billions S05E04 defending jacob rick and morty yts love life Stargirl s01e02 transplant agents ethd The Wrong Missy 2020 Survive the Night 2020 Rick and Morty S04E09 Raktanchal Barkskins s01e01 Capone 2020 Blindspot Snowpiercer S01E02 killing eve DDR Grant S01E02 nascar legends of tomorrow what we do in the shadows hindi 2160p Killing Eve S03E07 Scoob! 2020 rq.mp4 the walking dead agents of shield outlander ettv Brazzers Best Of Brazzers etmovies snowpiercer WWE  The Real Housewives of Beverly Hills S10E07 Americas Got Talent S15E01 The 100 S07E02 Locke  the flash Inheritance 2020 ddr stargirl American dad Grant S01E01 marvel week hindi 2020 See.S01E04.WEB.x264-PHOENiX[TGx] the 100 DCs Legends of Tomorrow S05E14 0 the good fight DC week 
Warning! Use a VPN When Downloading Torrents!
Your IP Address is 34.204.176.125. Location United States
Your Internet Provider can see when you download torrents! Hide your IP Address with a VPN
ETTV warns: You should use VPN to hide your torrenting. HIDE ME NOW
ETTV Recommended TV Shows
The.Good.Fight.S04E07.720p.WEB.H265.ETRG torrent
Man.With.a.Plan.S04E11.HDTV.x264-SVA[ettv] torrent
Council.of.Dads.S01E05.HDTV.x264-SVA[ettv] torrent
Siren.2018.S03E10.WEB.H264-BTX[ettv] torrent
In.the.Dark.2019.S02E07.HDTV.x264-SVA.ETRG torrent
Blindspot.S05E03.HDTV.x264-SVA.ETRG torrent

ETTV Recommended SD
Guest.Of.Honour.2020.HC.HDRip.XviD.AC3-EVO torrent
I.See.You.2019.BRRip.XviD.AC3-EVO torrent
100.Percent.Wolf.2020.HDRip.XviD.AC3-EVO torrent
Murder.Manual.2020.HDRip.XviD.AC3-EVO torrent

ETTV Recommended HD
Murder.Manual.1080p.AMZN.WEB-DL.DDP2.0.H.264-CMRG[EtHD] torrent
7500.2020.1080p.WEB-DL.H264.AC3-EVO[EtHD] torrent
The.High.Note.2020.1080p.WEB-DL.H264.AC3-EVO[EtHD] torrent
The.Vast.Of.Night.2020.1080p.AMZN.WEB-DL.H264.DDP.5.1-EVO[EtHD] torrent

ETTV Recommended UHD
The.Wrong.Missy.2020.UHD.MULTI.2160p.HDR.WEBRip.DDP.5.1.HEVC-DDR[EtHD] torrent
Queen & Slim (2019) [BluRay Rip 2160p HEVC 10bit-HDR ITA-ENG DTS-AC3-SUBS] [M@HD] torrent
1917.2019.HDR10Plus.2160p.UHD.BluRay.x265.iNTERNAL-JustWatch.ETRG torrent
Dolittle.2020.HDR10Plus.2160p.UHD.BluRay.x265.iNTERNAL-JustWatch.ETRG torrent

ETTV Recommended Cam
The Hunt 2020 HDCAM x264 AC3-ETRG torrent
The Burnt Orange Heresy 2020 720p HDCAM-C1NEM4 torrent

ETTV Recommended Foreign
After(2019) HDRip 720p [Hindi-Dub] Dual-Audio x264 - 1XCinema torrent
Door.Ke.Darshan.2020.1080p.S.M.WEB-DL.AAC.2.0.H.264-Telly torrent
Ponmagal.Vandhal.2020.1080p.AMZN.WEB-DL.DD+5.1.x265-Telly torrent
Allagash (2020) HDRip 720p [Hindi-Dub] Dual-Audio x264 - 1XCinema torrent

Sponsored


Download Torrent "Night At The Museum - Battle Of The Smithsonian (2009) Open Matte (1080p We..."

IMDB Details
Description:

Security guard Larry Daley infiltrates the Smithsonian Institution in order to rescue Jedediah and Octavius, who have been shipped to the museum by mistake.

Genre:

Adventure, Comedy, Family, Fantasy

Download Torrent (Magnet)
Download Torrent (File)
Seeds: 59
Leechers: 30
Completed: 2,549 
Last Checked: 29-12-2019 14:16:41


Details
Title:Night At The Museum - Battle Of The Smithsonian (2009) Open Matte (1080p We...
Description:






Media Information
General
Format                                   : Matroska
Format version                           : Version 4 / Version 2
File size                                : 1.85 GiB
Duration                                 : 1 h 44 min
Overall bit rate                         : 2 527 kb/s
Encoded date                             : UTC 2019-07-14 19:17:22
Writing application                      : mkvmerge v35.0.0 ('All The Love In The World') 64-bit
Writing library                          : libebml v1.3.9 + libmatroska v1.5.2
Cover                                    : Yes
Attachments                              : cover.jpg

Video
ID                                       : 1
Format                                   : HEVC
Format/Info                              : High Efficiency Video Coding
Format profile                           : Main [email protected]@Main
Codec ID                                 : V_MPEGH/ISO/HEVC
Duration                                 : 1 h 44 min
Bit rate                                 : 2 301 kb/s
Width                                    : 1 920 pixels
Height                                   : 1 080 pixels
Display aspect ratio                     : 16:9
Frame rate mode                          : Constant
Frame rate                               : 23.976 (24000/1001) FPS
Color space                              : YUV
Chroma subsampling                       : 4:2:0
Bit depth                                : 10 bits
Bits/(Pixel*Frame)                       : 0.046
Stream size                              : 1.69 GiB (91%)
Writing library                          : x265 2.9:[Windows][GCC 8.2.0][64 bit] 10bit
Encoding settings                        : cpuid=1111039 / frame-threads=2 / numa-pools=4 / wpp / no-pmode / no-pme / no-psnr / no-ssim / log-level=2 / input-csp=1 / input-res=1920x1080 / interlace=0 / total-frames=0 / level-idc=0 / high-tier=1 / uhd-bd=0 / ref=5 / no-allow-non-conformance / no-repeat-headers / annexb / no-aud / no-hrd / info / hash=0 / no-temporal-layers / open-gop / min-keyint=24 / keyint=240 / gop-lookahead=0 / bframes=8 / b-adapt=2 / b-pyramid / bframe-bias=0 / rc-lookahead=40 / lookahead-slices=0 / scenecut=40 / radl=0 / no-intra-refresh / ctu=64 / min-cu-size=8 / rect / amp / max-tu-size=32 / tu-inter-depth=3 / tu-intra-depth=3 / limit-tu=4 / rdoq-level=2 / dynamic-rd=0.00 / no-ssim-rd / signhide / no-tskip / nr-intra=0 / nr-inter=0 / no-constrained-intra / strong-intra-smoothing / max-merge=4 / limit-refs=1 / limit-modes / me=3 / subme=4 / merange=57 / temporal-mvp / weightp / weightb / no-analyze-src-pics / deblock=-2:-2 / no-sao / no-sao-non-deblock / rd=6 / no-early-skip / rskip / no-fast-intra / no-tskip-fast / no-cu-lossless / b-intra / no-splitrd-skip / rdpenalty=0 / psy-rd=2.00 / psy-rdoq=1.00 / no-rd-refine / no-lossless / cbqpoffs=0 / crqpoffs=0 / rc=abr / bitrate=2300 / qcomp=0.60 / qpstep=4 / stats-write=0 / stats-read=2 / cplxblur=20.0 / qblur=0.5 / ipratio=1.40 / pbratio=1.30 / aq-mode=1 / aq-strength=1.00 / cutree / zone-count=0 / no-strict-cbr / qg-size=32 / no-rc-grain / qpmax=69 / qpmin=0 / no-const-vbv / sar=1 / overscan=0 / videoformat=5 / range=0 / colorprim=1 / transfer=1 / colormatrix=1 / chromaloc=0 / display-window=0 / max-cll=0,0 / min-luma=0 / max-luma=1023 / log2-max-poc-lsb=8 / vui-timing-info / vui-hrd-info / slices=1 / no-opt-qp-pps / no-opt-ref-list-length-pps / no-multi-pass-opt-rps / scenecut-bias=0.05 / no-opt-cu-delta-qp / no-aq-motion / no-hdr / no-hdr-opt / no-dhdr10-opt / no-idr-recovery-sei / analysis-reuse-level=5 / scale-factor=0 / refine-intra=0 / refine-inter=0 / refine-mv=0 / no-limit-sao / ctu-info=0 / no-lowpass-dct / refine-mv-type=0 / copy-pic=1 / max-ausize-factor=1.0 / no-dynamic-refine / no-single-sei
Default                                  : Yes
Forced                                   : No
Color range                              : Limited
Color primaries                          : BT.709
Transfer characteristics                 : BT.709
Matrix coefficients                      : BT.709

Audio
ID                                       : 3
Format                                   : AAC
Format/Info                              : Advanced Audio Codec
Format profile                           : LC
Codec ID                                 : A_AAC
Duration                                 : 1 h 44 min
Bit rate                                 : 224 kb/s
Channel(s)                               : 6 channels
Channel positions                        : Front: L C R, Side: L R, LFE
Sampling rate                            : 48.0 kHz
Frame rate                               : 46.875 FPS (1024 spf)
Compression mode                         : Lossy
Delay relative to video                  : -21 ms
Stream size                              : 168 MiB (9%)
Title                                    : Surround
Language                                 : English
Default                                  : Yes
Forced                                   : No

Subtitle
ID                                       : 2
Format                                   : UTF-8
Codec ID                                 : S_TEXT/UTF8
Codec ID/Info                            : UTF-8 Plain Text
Duration                                 : 1 h 41 min
Bit rate                                 : 221 b/s
Count of elements                        : 2325
Stream size                              : 165 KiB (0%)
Default                                  : Yes
Forced                                   : No



Source Information
Release: 
Night.at.the.Museum.Battle.of.the.Smithsonian.2009.Open.Matte.1080p.WEB-DL.4xUS.Eng ~ (15.5gb)



Note From UTR
Whilst we are happy for our releases to be re-posted on a platform we aren't on, please do so in an 'as-is' format. We ask that you do not create a new torrent, include all descriptions you see above including the UTR logo, tags, notes and screenshots. If you'd like to become a permanent poster on a website we don't post to, feel free to get in contact with a UTR member.
If possible please donate for seedboxes.
BTC - 1QA5fum5AyXvWzdVCkQzUNvw3Ef15fHRaR
Monero - 8AuksPSzY7fen3HHT1a2342PgVy4J93MKfXG3AAcayV76miTyJ3sNfn38srwrpLirGfeR5DwhTL8GW8pdQgT7bZcJ25ynMx
Dash - Xh4mNs6uwZdpCEX2HSEVwGvPD7yKxZ1Ccd
Ethereum - 0x51c06c94e74c16735a7a6e841ad29fc90a84eb1f


Category:Movies > HEVC/x265
Lang:English  English
Total Size:1.85 GB
Info Hash:064aa11dc74ddf020c24575bb04feafd41fe52f9
Added By:UTR
Date Added:29-12-2019 14:16:39

Files

File List: 
 File Size
Night At The Museum - Battle Of The Smithsonian (2009) Open Matte (Web-DL 1080p x265 HEVC 10bit AAC 5.1 RN) [UTR].mkv1.85 GB



Comments

There are currently no comments. Be the first one to write something !