westworld S03E03 bad boys Contagion 2011 Tiger King Murder, Mayhem and Madness S01E01 spenser confidential 2020 The Gentlemen 2020 Ozark s03e04 Trolls World Tour 2020 a quiet place part ii 2020 Bloodshot 2020 star wars the rise of skywalker 2019 Knives Out 2019 etrg Ozark S03E01 underwater Greys Anatomy S16E19 westworld i still believe 2020 Impractical Jokers The Movie 2020 Lost Girls 2020 ethd ita the walking dead Ozark s03e03 Ozark s03e05 xxx joker 2019 Vivarium 2020 Spies in Disguise 2019 The Banker 2020 bloodshot The Invisible Man 2020 Birds of Prey (and the Fantabulous Emancipation of One Harley Quinn) 2020 Outlander S05E07 homeland the postcard killings 2020 Westworld S03E02 evo The Grudge 2020 greys anatomy ettv The Call of the Wild 2020 outlander Onward 2020 Fantasy Island 2020 jumanji the next level 2019 bad boys for life  The Way Back 2020 The Walking Dead S10E14 The Platform 2019 Dolittle 2020 The Blacklist S07E12 Ozark s03e02 OZARK Star Trek Picard S01E10 Frozen II 2019 ddr Ford v Ferrari 2019 Underwater 2020 yts 1917 2019 picard The Hunt 2020 Bad Boys for Life 2020 Homeland S08E08 rq.mp4 etmovies Sonic the Hedgehog 2020 The Gentlemen 2019 Parasite 2019 hindi 
ETTV Recommended TV Shows
Westworld.S03E03.WEB.H264-XLF[ettv] torrent
NCIS.Los.Angeles.S11E19.HDTV.x264-SVA[ettv] torrent
NCIS.New.Orleans.S06E18.HDTV.x264-SVA[ettv] torrent
Last.Week.Tonight.with.John.Oliver.S07E06.WEB.H264-XLF[ettv] torrent

ETTV Recommended SD
What.Love.Looks.Like.2020.HDRip.XviD.AC3-EVO torrent
Red Shoes and the Seven Dwarfs.2020.HDRip.XviD-EVO torrent
In.Vino.2019.HDRip.XviD.AC3-EVO torrent
The.Last.Right.2019.HDRip.XviD.AC3-EVO torrent

ETTV Recommended HD
In.Vino.2019.1080p.WEB-DL.H264.AC3-EVO[EtHD] torrent
Maze.Runner.The.Death.Cure.2018.BRRip.1080p.HEVC.HDR.Multi.DD5.1.ETRG torrent
Hostiles.2017.BRRip.1080p.HEVC.HDR.Eng.DD5.1.ETRG torrent
Escape.From.Auschwitz.2020.1080p.WEB-DL.H264.AC3-EVO[EtHD] torrent

ETTV Recommended UHD
Maze.Runner.The.Death.Cure.2018.BDRip.2160p.UHD.HDR.Multi.TrueHD.DTS.ETRG torrent
Hostiles.2017.BDRip.2160p.UHD.HDR.Eng.DTS-HDMA.ETRG torrent
Star.Wars.Episode.I.The.Phantom.Menace.1999.MULTi.UHD.2160p.HDR.Atmos.7.1.HEVC-DDR.mkv torrent
Star.Wars.Episode.III.Revenge.of.the.Sith.2005.MULTi.UHD.2160p.HDR.Atmos.7.1.HEVC-DDR.mkv torrent

ETTV Recommended Cam
My Spy 2020 HDCAM x264 AC3-ETRG torrent
The Hunt 2020 HDCAM x264 AC3-ETRG torrent
The Burnt Orange Heresy 2020 720p HDCAM-C1NEM4 torrent
Fantasy Island 2020 UNRATED HDTS XViD AC3-ETRG torrent

ETTV Recommended Foreign
Bloodshot (2020) ITA-ENG Ac3 5.1 WEBRip 1080p H264 [ArMor] torrent
The Black Hole (2006) 720p WEBRip x264 Eng Subs [Dual Audio] [Hindi DD 2.0 - English 2.0] Exclusive By -=!Dr.STAR!=- torrent
Justin and the Knights of Valour (2013) 720p BluRay x264 Eng Subs [Dual Audio] [Hindi DD 2.0 - English 2.0] Exclusive By -=!Dr.STAR!=- torrent
Cut (2000) 720p BluRay x264 Eng Subs [Dual Audio] [Hindi DD 2.0 - English 2.0] Exclusive By -=!Dr.STAR!=- torrent


Download Torrent "Wanted (2008) Open Matte (1080p WEB-DL x265 HEVC 10bit AAC 5.1 RN) [UTR]"

IMDB Details
Description:

A frustrated office worker learns that he is the son of a professional assassin and that he shares his father's superhuman killing abilities.

Genre:

Action, Crime, Fantasy, Thriller

Download Torrent (Magnet)
Seeds: 192
Leechers: 116
Completed: 7,094 
Last Checked: 28-12-2019 23:09:02


Details
Title:Wanted (2008) Open Matte (1080p WEB-DL x265 HEVC 10bit AAC 5.1 RN) [UTR]
Description:






Media Information
General
Format                                   : Matroska
Format version                           : Version 4 / Version 2
File size                                : 2.10 GiB
Duration                                 : 1 h 50 min
Overall bit rate                         : 2 727 kb/s
Encoded date                             : UTC 2019-07-23 12:13:48
Writing application                      : mkvmerge v35.0.0 ('All The Love In The World') 64-bit
Writing library                          : libebml v1.3.9 + libmatroska v1.5.2
Cover                                    : Yes
Attachments                              : cover.jpg

Video
ID                                       : 1
Format                                   : HEVC
Format/Info                              : High Efficiency Video Coding
Format profile                           : Main [email protected]@Main
Codec ID                                 : V_MPEGH/ISO/HEVC
Duration                                 : 1 h 50 min
Bit rate                                 : 2 500 kb/s
Width                                    : 1 920 pixels
Height                                   : 1 080 pixels
Display aspect ratio                     : 16:9
Frame rate mode                          : Constant
Frame rate                               : 23.976 (24000/1001) FPS
Color space                              : YUV
Chroma subsampling                       : 4:2:0
Bit depth                                : 10 bits
Bits/(Pixel*Frame)                       : 0.050
Stream size                              : 1.92 GiB (92%)
Writing library                          : x265 2.9:[Windows][GCC 8.2.0][64 bit] 10bit
Encoding settings                        : cpuid=1111039 / frame-threads=2 / numa-pools=4 / wpp / no-pmode / no-pme / no-psnr / no-ssim / log-level=2 / input-csp=1 / input-res=1920x1080 / interlace=0 / total-frames=0 / level-idc=0 / high-tier=1 / uhd-bd=0 / ref=5 / no-allow-non-conformance / no-repeat-headers / annexb / no-aud / no-hrd / info / hash=0 / no-temporal-layers / open-gop / min-keyint=24 / keyint=240 / gop-lookahead=0 / bframes=8 / b-adapt=2 / b-pyramid / bframe-bias=0 / rc-lookahead=40 / lookahead-slices=0 / scenecut=40 / radl=0 / no-intra-refresh / ctu=64 / min-cu-size=8 / rect / amp / max-tu-size=32 / tu-inter-depth=3 / tu-intra-depth=3 / limit-tu=4 / rdoq-level=2 / dynamic-rd=0.00 / no-ssim-rd / signhide / no-tskip / nr-intra=0 / nr-inter=0 / no-constrained-intra / strong-intra-smoothing / max-merge=4 / limit-refs=1 / limit-modes / me=3 / subme=4 / merange=57 / temporal-mvp / weightp / weightb / no-analyze-src-pics / deblock=-3:-3 / no-sao / no-sao-non-deblock / rd=6 / no-early-skip / rskip / no-fast-intra / no-tskip-fast / no-cu-lossless / b-intra / no-splitrd-skip / rdpenalty=0 / psy-rd=2.00 / psy-rdoq=1.00 / no-rd-refine / no-lossless / cbqpoffs=0 / crqpoffs=0 / rc=abr / bitrate=2500 / qcomp=0.60 / qpstep=4 / stats-write=0 / stats-read=2 / cplxblur=20.0 / qblur=0.5 / ipratio=1.40 / pbratio=1.30 / aq-mode=1 / aq-strength=1.00 / cutree / zone-count=0 / no-strict-cbr / qg-size=32 / no-rc-grain / qpmax=69 / qpmin=0 / no-const-vbv / sar=1 / overscan=0 / videoformat=5 / range=0 / colorprim=1 / transfer=1 / colormatrix=1 / chromaloc=0 / display-window=0 / max-cll=0,0 / min-luma=0 / max-luma=1023 / log2-max-poc-lsb=8 / vui-timing-info / vui-hrd-info / slices=1 / no-opt-qp-pps / no-opt-ref-list-length-pps / no-multi-pass-opt-rps / scenecut-bias=0.05 / no-opt-cu-delta-qp / no-aq-motion / no-hdr / no-hdr-opt / no-dhdr10-opt / no-idr-recovery-sei / analysis-reuse-level=5 / scale-factor=0 / refine-intra=0 / refine-inter=0 / refine-mv=0 / no-limit-sao / ctu-info=0 / no-lowpass-dct / refine-mv-type=0 / copy-pic=1 / max-ausize-factor=1.0 / no-dynamic-refine / no-single-sei
Default                                  : Yes
Forced                                   : No
Color range                              : Limited
Color primaries                          : BT.709
Transfer characteristics                 : BT.709
Matrix coefficients                      : BT.709

Audio
ID                                       : 3
Format                                   : AAC
Format/Info                              : Advanced Audio Codec
Format profile                           : LC
Codec ID                                 : A_AAC
Duration                                 : 1 h 50 min
Bit rate                                 : 224 kb/s
Channel(s)                               : 6 channels
Channel positions                        : Front: L C R, Side: L R, LFE
Sampling rate                            : 48.0 kHz
Frame rate                               : 46.875 FPS (1024 spf)
Compression mode                         : Lossy
Delay relative to video                  : -21 ms
Stream size                              : 176 MiB (8%)
Title                                    : Surround
Language                                 : English
Default                                  : Yes
Forced                                   : No

Subtitle
ID                                       : 2
Format                                   : UTF-8
Codec ID                                 : S_TEXT/UTF8
Codec ID/Info                            : UTF-8 Plain Text
Duration                                 : 1 h 41 min
Bit rate                                 : 98 b/s
Count of elements                        : 993
Stream size                              : 73.4 KiB (0%)
Language                                 : English
Default                                  : Yes
Forced                                   : No

Menu
00:00:00.000                             : :The Fraternity
00:07:10.347                             : :Stressed Out
00:13:06.953                             : :Greatest Assassin
00:21:06.766                             : :One of Us
00:26:34.301                             : :I'm the Man
00:32:19.938                             : :In the Factory
00:37:38.882                             : :Feeling Good
00:42:13.114                             : :One By One
00:45:30.561                             : :Who Are You?
00:52:01.368                             : :Loom of Fate
00:56:32.264                             : :First Target
01:01:07.205                             : :Second Target
01:04:08.595                             : :A Message
01:09:52.730                             : :Meeting the Maker
01:13:40.458                             : :Off Track
01:20:33.912                             : :Perfet Weapon
01:27:19.109                             : :Kill Him
01:33:32.941                             : :Follow the Code
01:39:35.011                             : :Taking Control
01:42:30.686                             : :End Titles



Source Information
Release: 
Wanted.2008. Open.Matte .1080p.WEB-DL.2xRus.2xUkr.Eng.HDCLUB ~ (13gb)



Note From UTR
Whilst we are happy for our releases to be re-posted on a platform we aren't on, please do so in an 'as-is' format. We ask that you do not create a new torrent, include all descriptions you see above including the UTR logo, tags, notes and screenshots. If you'd like to become a permanent poster on a website we don't post to, feel free to get in contact with a UTR member.
If possible please donate for seedboxes.
BTC - 1QA5fum5AyXvWzdVCkQzUNvw3Ef15fHRaR
Monero - 8AuksPSzY7fen3HHT1a2342PgVy4J93MKfXG3AAcayV76miTyJ3sNfn38srwrpLirGfeR5DwhTL8GW8pdQgT7bZcJ25ynMx
Dash - Xh4mNs6uwZdpCEX2HSEVwGvPD7yKxZ1Ccd
Ethereum - 0x51c06c94e74c16735a7a6e841ad29fc90a84eb1f


Category:Movies > HEVC/x265
Lang:English  English
Total Size:2.10 GB
Info Hash:63610abc602e77c8c37390b22eabb16caea76824
Added By:UTR
Date Added:28-12-2019 23:08:58

Files

File List: 
 File Size
Wanted (2008) [OPEN MATTE] Web-DL 1080p x265 HEVC 10bit AAC 6ch - RN.mkv2.10 GB



Comments

There are currently no comments. Be the first one to write something !