0 homeland Birds of Prey (and the Fantabulous Emancipation of One Harley Quinn) 2020 the call of the wild 2020 Gretel and Hansel 2020 The Hunt 2020 outlander The Gentlemen 2019 better call saul s05e08 Trolls World Tour 2020 money heist all rise Westworld s03e02 Underwater 2020 Good Girls S03E08 jumanji the next level 2019 Bull S04E18 Manifest evo tiger king xxx the walking dead rq.mp4 fantasy island 2020 yts sonic the hedgehog 2020 etmovies 1917 2019 ettv Bad Boys for Life 2020 Manifest S02E13 Wwe contagion 2011 Star Wars The Rise of Skywalker 2019 westworld hindi The Walking Dead S10E14 Westworld S03E04 The Walking Dead S10E15 Below Deck Sailing Yacht S01E10 The Blacklist S07E13 Frozen II 2019 The Neighborhood S02E19 onward 2020 The Invisible Man 2020 westworld s03e03 Briarpatch S01E09 dolittle 2020 Last Week Tonight with John Oliver S07E07 Knives Out 2019 Ozark s03e07 All Rise S01E19 Bloodshot 2020 The Voice S18E08 Almost Paradise S01E02 Vivarium 2020 my spy My Spy 2020 The Platform 2019 bull etrg better call saul ddr Survive S01E01 The Rookie S02E16 ethd Homeland S08E09 The Banker 2020 ita ip man 4 
ETTV Recommended TV Shows
All.Rise.S01E19.HDTV.x264-SVA[ettv] torrent
Roswell.New.Mexico.S02E04.HDTV.x264-SVA[ettv] torrent
The.Resident.S03E20.WEB.x264-XLF[ettv] torrent
Empire.2015.S06E16.WEB.H264-iNSiDiOUS[ettv] torrent

ETTV Recommended SD
Trolls.World.Tour.2020.AMZN.HDRip,XViD-ETRG torrent
Like.A.Boss.2020.HDRip.XViD-ETRG torrent
The.Turning.2020.HDRip.XViD-ETRG torrent
Mosley.2019.HDRip.XviD.AC3-EVO torrent

ETTV Recommended HD
Gretel.and.Hansel.2020.1080p.WEB-DL.DD5.1.x264-CMRG[EtHD] torrent
Like.a.Boss.2020.1080p.WEB-DL.DD5.1.x264-CMRG[EtHD] torrent
Gold.Dust.2020.1080p.WEB-DL.H264.AC3-EVO[EtHD] torrent
Mosley.2019.1080p.WEB-DL.H264.AC3-EVO[EtHD] torrent

ETTV Recommended UHD
Dolphin.Reef.2020.UHD.2160p.WebRip.HDR.DDP.5.1.HEVC-DDR.mkv torrent
Hulk.2003.BDRip.2160p.UHD.HDR.Eng.Fre.DTS-HDMA.ETRG torrent
The.Incredible.Hulk.2008.BDRip.2160p.UHD.HDR.Eng.DTS.ETRG torrent
Stand.by.Me.1986.BDRip.2160p.UHD.HDR.Eng.TrueHD.ETRG torrent

ETTV Recommended Cam
My Spy 2020 HDCAM x264 AC3-ETRG torrent
The Hunt 2020 HDCAM x264 AC3-ETRG torrent
The Burnt Orange Heresy 2020 720p HDCAM-C1NEM4 torrent
Fantasy Island 2020 UNRATED HDTS XViD AC3-ETRG torrent

ETTV Recommended Foreign
Angrezi Medium 2020.1080p.DSNP+.WEB-DL.Hin.AAC.2.0.H265-Telly torrent
Cursed - Il maleficio (2005).720p.H264.ita.eng.Ac3-5.1.sub.ita.eng-MIRCrew torrent
1917 (2019) BRRip 720p [Hindi DD5.1] Dual-Audio x264 - KatmovieHD torrent
Har Kisse Ke Hisse Kaamyaab.2020.1080p.Itunes.WED-DL.DD.5.1.x264-Telly torrent


Download Torrent "Iron Man 2 (2010) Open Matte (1080p WEB-DL x265 HEVC 10bit AAC 5.1 RN) [UTR..."

IMDB Details
Description:

With the world now aware of his identity as Iron Man, Tony Stark must contend with both his declining health and a vengeful mad man with ties to his father's legacy.

Genre:

Action, Adventure, Sci-Fi

Download Torrent (Magnet)
Seeds: 136
Leechers: 26
Completed: 1,907 
Last Checked: 28-12-2019 22:56:17


Details
Title:Iron Man 2 (2010) Open Matte (1080p WEB-DL x265 HEVC 10bit AAC 5.1 RN) [UTR...
Description:






Media Information
General
Format                                   : Matroska
Format version                           : Version 4 / Version 2
File size                                : 2.35 GiB
Duration                                 : 2 h 4 min
Overall bit rate                         : 2 695 kb/s
Encoded date                             : UTC 2019-05-11 14:38:01
Writing application                      : mkvmerge v33.1.0 ('Primrose') 64-bit
Writing library                          : libebml v1.3.7 + libmatroska v1.5.0
Cover                                    : Yes
Attachments                              : cover.jpg

Video
ID                                       : 1
Format                                   : HEVC
Format/Info                              : High Efficiency Video Coding
Format profile                           : Main [email protected]@Main
Codec ID                                 : V_MPEGH/ISO/HEVC
Duration                                 : 2 h 4 min
Bit rate                                 : 2 500 kb/s
Width                                    : 1 920 pixels
Height                                   : 1 080 pixels
Display aspect ratio                     : 16:9
Frame rate mode                          : Constant
Frame rate                               : 23.976 (24000/1001) FPS
Color space                              : YUV
Chroma subsampling                       : 4:2:0
Bit depth                                : 10 bits
Bits/(Pixel*Frame)                       : 0.050
Stream size                              : 2.18 GiB (93%)
Writing library                          : x265 2.9:[Windows][GCC 8.2.0][64 bit] 10bit
Encoding settings                        : cpuid=1111039 / frame-threads=2 / numa-pools=4 / wpp / no-pmode / no-pme / no-psnr / no-ssim / log-level=2 / input-csp=1 / input-res=1920x1080 / interlace=0 / total-frames=0 / level-idc=0 / high-tier=1 / uhd-bd=0 / ref=5 / no-allow-non-conformance / no-repeat-headers / annexb / no-aud / no-hrd / info / hash=0 / no-temporal-layers / open-gop / min-keyint=24 / keyint=240 / gop-lookahead=0 / bframes=8 / b-adapt=2 / b-pyramid / bframe-bias=0 / rc-lookahead=40 / lookahead-slices=0 / scenecut=40 / radl=0 / no-intra-refresh / ctu=64 / min-cu-size=8 / rect / amp / max-tu-size=32 / tu-inter-depth=3 / tu-intra-depth=3 / limit-tu=4 / rdoq-level=2 / dynamic-rd=0.00 / no-ssim-rd / signhide / no-tskip / nr-intra=0 / nr-inter=0 / no-constrained-intra / strong-intra-smoothing / max-merge=4 / limit-refs=1 / limit-modes / me=3 / subme=4 / merange=57 / temporal-mvp / weightp / weightb / no-analyze-src-pics / deblock=-2:-2 / no-sao / no-sao-non-deblock / rd=6 / no-early-skip / rskip / no-fast-intra / no-tskip-fast / no-cu-lossless / b-intra / no-splitrd-skip / rdpenalty=0 / psy-rd=2.00 / psy-rdoq=1.00 / no-rd-refine / no-lossless / cbqpoffs=0 / crqpoffs=0 / rc=abr / bitrate=2500 / qcomp=0.60 / qpstep=4 / stats-write=0 / stats-read=2 / cplxblur=20.0 / qblur=0.5 / ipratio=1.40 / pbratio=1.30 / aq-mode=1 / aq-strength=1.00 / cutree / zone-count=0 / no-strict-cbr / qg-size=32 / no-rc-grain / qpmax=69 / qpmin=0 / no-const-vbv / sar=1 / overscan=0 / videoformat=5 / range=0 / colorprim=1 / transfer=1 / colormatrix=1 / chromaloc=0 / display-window=0 / max-cll=0,0 / min-luma=0 / max-luma=1023 / log2-max-poc-lsb=8 / vui-timing-info / vui-hrd-info / slices=1 / no-opt-qp-pps / no-opt-ref-list-length-pps / no-multi-pass-opt-rps / scenecut-bias=0.05 / no-opt-cu-delta-qp / no-aq-motion / no-hdr / no-hdr-opt / no-dhdr10-opt / no-idr-recovery-sei / analysis-reuse-level=5 / scale-factor=0 / refine-intra=0 / refine-inter=0 / refine-mv=0 / no-limit-sao / ctu-info=0 / no-lowpass-dct / refine-mv-type=0 / copy-pic=1 / max-ausize-factor=1.0 / no-dynamic-refine / no-single-sei
Language                                 : English
Default                                  : Yes
Forced                                   : No
Color range                              : Limited
Color primaries                          : BT.709
Transfer characteristics                 : BT.709
Matrix coefficients                      : BT.709

Audio
ID                                       : 2
Format                                   : AAC
Format/Info                              : Advanced Audio Codec
Format profile                           : LC
Codec ID                                 : A_AAC
Duration                                 : 2 h 4 min
Bit rate                                 : 192 kb/s
Channel(s)                               : 6 channels
Channel positions                        : Front: L C R, Side: L R, LFE
Sampling rate                            : 48.0 kHz
Frame rate                               : 46.875 FPS (1024 spf)
Compression mode                         : Lossy
Delay relative to video                  : -21 ms
Stream size                              : 171 MiB (7%)
Title                                    : Surround
Language                                 : English
Default                                  : Yes
Forced                                   : No

Subtitle
ID                                       : 3
Format                                   : UTF-8
Codec ID                                 : S_TEXT/UTF8
Codec ID/Info                            : UTF-8 Plain Text
Duration                                 : 2 h 4 min
Bit rate                                 : 148 b/s
Count of elements                        : 1634
Stream size                              : 135 KiB (0%)
Title                                    : SDH - Amazon
Language                                 : English
Default                                  : Yes
Forced                                   : No

Menu
00:00:00.000                             : :Studio Logos
00:00:37.120                             : :Anton Vanko Watches Stark's Press Conference
00:02:42.079                             : :Ivan Builds a Weapon
00:05:03.220                             : :Tony Makes the Opening Speech at Stark Expo
00:08:55.035                             : :Stark Gets Served
00:11:06.082                             : :Stark Defends Himself in a Senate Hearing
00:17:12.073                             : :Ivan Completes His Work
00:17:59.328                             : :Stark Checks the Status of the Arc Reactor
00:19:22.244                             : :Stark Makes Pepper the New CEO
00:22:20.256                             : :Ivan Makes Arrangements to Travel
00:22:59.003                             : :Stark Admires Pepper's New Assistant
00:25:52.009                             : :Stark Arrives at the Monaco Grand Prix
00:30:14.146                             : :Ivan Makes an Appearance
00:37:31.082                             : :Stark Questions Ivan
00:40:16.372                             : :Stark Tries to Talk Pepper into Taking a Break with Him
00:42:09.110                             : :Ivan Is Broken out of Jail
00:44:00.054                             : :Hammer Enlists Ivan
00:46:52.143                             : :Rhodey Informs Tony about the Military's Intentions
00:49:42.188                             : :Hammer Shows Ivan the Facilities
00:51:38.095                             : :Stark Talks to Natalie
00:53:14.108                             : :Rhodey Shuts Down Tony's Birthday Party
00:56:44.151                             : :A Fight Breaks Out at the Birthday Party
01:00:08.146                             : :Rhodey Flies to an Air Force Base
01:01:20.093                             : :Nick Fury Talks to Stark about His Problem
01:03:59.002                             : :Hammer Discovers Ivan Is Creating Drones
01:06:11.092                             : :Rhodey Shows General Meade the Suit
01:07:00.099                             : :Nick Fury Tells Tony about the Arc Reactor
01:09:53.106                             : :Hammer Presents Several Weapons to Rhodey
01:12:52.285                             : :Tony Goes through the Package
01:15:59.013                             : :Stark Tries to Apologize to Pepper
01:21:12.117                             : :Stark Rediscovers the Key
01:23:42.017                             : :Stark Synthesizes a New Element for His Reactor
01:27:27.117                             : :Ivan Talks to Hammer about Drones
01:30:32.010                             : :Ivan Gives Tony a Call
01:32:02.017                             : :Hammer Presents at Stark Expo
01:35:31.017                             : :Iron Man Crashes the Expo
01:36:58.021                             : :Drones and War Machine Pursue Iron Man
01:41:17.154                             : :Black Widow and Happy Provide Added Support
01:45:40.125                             : :Stark and Rhodey Finish Off the Hammer Drones
01:48:59.158                             : :Tony and Rhodey Battle Vanko
01:52:13.018                             : :Stark and Pepper Assess Their Relationship
01:54:16.099                             : :Fury Gives Stark His Psychological Assessment
01:56:09.045                             : :Senator Stern Presents Medals to Stark and Rhodey
01:57:01.014                             : :End Credits
02:03:35.241                             : :Agent Coulson Reports Finding a Hammer
02:04:27.085                             : :Studio Logos



Source Information
Release:
Iron.Man.2.2010.Open.Matte.1080p.WEB-DL.3xRus.Ukr.Eng.TeamHD ~ (17gb)



Note From UTR
Whilst we are happy for our releases to be re-posted on a platform we aren't on, please do so in an 'as-is' format. We ask that you do not create a new torrent, include all descriptions you see above including the UTR logo, tags, notes and screenshots. If you'd like to become a permanent poster on a website we don't post to, feel free to get in contact with a UTR member.
If possible please donate for seedboxes.
BTC - 1QA5fum5AyXvWzdVCkQzUNvw3Ef15fHRaR
Monero - 8AuksPSzY7fen3HHT1a2342PgVy4J93MKfXG3AAcayV76miTyJ3sNfn38srwrpLirGfeR5DwhTL8GW8pdQgT7bZcJ25ynMx
Dash - Xh4mNs6uwZdpCEX2HSEVwGvPD7yKxZ1Ccd
Ethereum - 0x51c06c94e74c16735a7a6e841ad29fc90a84eb1f

Category:Movies > HEVC/x265
Lang:English  English
Total Size:2.35 GB
Info Hash:f316b35f3ed797c6975f6fd426fb553a02e4681f
Added By:UTR
Date Added:28-12-2019 22:56:15

Files

File List: 
 File Size
Iron Man 2 (2010) [OPEN MATTE] Web-DL 1080p x265 HEVC 10bit 6ch - RN.mkv2.35 GB



Comments

There are currently no comments. Be the first one to write something !