westworld S03E03 bad boys Contagion 2011 Tiger King Murder, Mayhem and Madness S01E01 spenser confidential 2020 The Gentlemen 2020 Ozark s03e04 Trolls World Tour 2020 a quiet place part ii 2020 Bloodshot 2020 star wars the rise of skywalker 2019 Knives Out 2019 etrg Ozark S03E01 underwater Greys Anatomy S16E19 westworld i still believe 2020 Impractical Jokers The Movie 2020 Lost Girls 2020 ethd ita the walking dead Ozark s03e03 Ozark s03e05 xxx joker 2019 Vivarium 2020 Spies in Disguise 2019 The Banker 2020 bloodshot The Invisible Man 2020 Birds of Prey (and the Fantabulous Emancipation of One Harley Quinn) 2020 Outlander S05E07 homeland the postcard killings 2020 Westworld S03E02 evo The Grudge 2020 greys anatomy ettv The Call of the Wild 2020 outlander Onward 2020 Fantasy Island 2020 jumanji the next level 2019 bad boys for life  The Way Back 2020 The Walking Dead S10E14 The Platform 2019 Dolittle 2020 The Blacklist S07E12 Ozark s03e02 OZARK Star Trek Picard S01E10 Frozen II 2019 ddr Ford v Ferrari 2019 Underwater 2020 yts 1917 2019 picard The Hunt 2020 Bad Boys for Life 2020 Homeland S08E08 rq.mp4 etmovies Sonic the Hedgehog 2020 The Gentlemen 2019 Parasite 2019 hindi 
ETTV Recommended TV Shows
Westworld.S03E03.WEB.H264-XLF[ettv] torrent
NCIS.Los.Angeles.S11E19.HDTV.x264-SVA[ettv] torrent
NCIS.New.Orleans.S06E18.HDTV.x264-SVA[ettv] torrent
Last.Week.Tonight.with.John.Oliver.S07E06.WEB.H264-XLF[ettv] torrent

ETTV Recommended SD
What.Love.Looks.Like.2020.HDRip.XviD.AC3-EVO torrent
Red Shoes and the Seven Dwarfs.2020.HDRip.XviD-EVO torrent
In.Vino.2019.HDRip.XviD.AC3-EVO torrent
The.Last.Right.2019.HDRip.XviD.AC3-EVO torrent

ETTV Recommended HD
In.Vino.2019.1080p.WEB-DL.H264.AC3-EVO[EtHD] torrent
Maze.Runner.The.Death.Cure.2018.BRRip.1080p.HEVC.HDR.Multi.DD5.1.ETRG torrent
Hostiles.2017.BRRip.1080p.HEVC.HDR.Eng.DD5.1.ETRG torrent
Escape.From.Auschwitz.2020.1080p.WEB-DL.H264.AC3-EVO[EtHD] torrent

ETTV Recommended UHD
Maze.Runner.The.Death.Cure.2018.BDRip.2160p.UHD.HDR.Multi.TrueHD.DTS.ETRG torrent
Hostiles.2017.BDRip.2160p.UHD.HDR.Eng.DTS-HDMA.ETRG torrent
Star.Wars.Episode.I.The.Phantom.Menace.1999.MULTi.UHD.2160p.HDR.Atmos.7.1.HEVC-DDR.mkv torrent
Star.Wars.Episode.III.Revenge.of.the.Sith.2005.MULTi.UHD.2160p.HDR.Atmos.7.1.HEVC-DDR.mkv torrent

ETTV Recommended Cam
My Spy 2020 HDCAM x264 AC3-ETRG torrent
The Hunt 2020 HDCAM x264 AC3-ETRG torrent
The Burnt Orange Heresy 2020 720p HDCAM-C1NEM4 torrent
Fantasy Island 2020 UNRATED HDTS XViD AC3-ETRG torrent

ETTV Recommended Foreign
Bloodshot (2020) ITA-ENG Ac3 5.1 WEBRip 1080p H264 [ArMor] torrent
The Black Hole (2006) 720p WEBRip x264 Eng Subs [Dual Audio] [Hindi DD 2.0 - English 2.0] Exclusive By -=!Dr.STAR!=- torrent
Justin and the Knights of Valour (2013) 720p BluRay x264 Eng Subs [Dual Audio] [Hindi DD 2.0 - English 2.0] Exclusive By -=!Dr.STAR!=- torrent
Cut (2000) 720p BluRay x264 Eng Subs [Dual Audio] [Hindi DD 2.0 - English 2.0] Exclusive By -=!Dr.STAR!=- torrent


Download Torrent "Die Hard Collection (1080p BluRay x265 HEVC 10bit AAC 5.1 Joy) [UTR]"

IMDB Details
Description:

N/A

Genre:

N/A

Download Torrent (Magnet)
Seeds: 938
Leechers: 648
Completed: 16,172 
Last Checked: 26-12-2019 17:42:47


Details
Title:Die Hard Collection (1080p BluRay x265 HEVC 10bit AAC 5.1 Joy) [UTR]
Description:





Media Information
General
Format                                   : Matroska
Format version                           : Version 4 / Version 2
File size                                : 1.86 GiB
Duration                                 : 2 h 15 min
Overall bit rate                         : 1 968 kb/s
Encoded date                             : UTC 2016-11-13 17:43:09
Writing application                      : mkvmerge v9.3.1 ('Mask Machine') 64bit
Writing library                          : libebml v1.3.4 + libmatroska v1.4.5
Cover                                    : Yes
Attachments                              : cover.jpg

Video
ID                                       : 1
Format                                   : HEVC
Format/Info                              : High Efficiency Video Coding
Format profile                           : Main [email protected]@Main
Codec ID                                 : V_MPEGH/ISO/HEVC
Duration                                 : 2 h 12 min
Bit rate                                 : 1 500 kb/s
Width                                    : 1 920 pixels
Height                                   : 800 pixels
Display aspect ratio                     : 2.40:1
Frame rate mode                          : Constant
Frame rate                               : 23.976 (24000/1001) FPS
Color space                              : YUV
Chroma subsampling                       : 4:2:0
Bit depth                                : 10 bits
Bits/(Pixel*Frame)                       : 0.041
Stream size                              : 1.38 GiB (75%)
Writing library                          : x265 2.0+54-e5ca9b210223:[Windows][MSVC 1900][64 bit] 10bit
Encoding settings                        : wpp / ctu=64 / min-cu-size=8 / max-tu-size=32 / tu-intra-depth=1 / tu-inter-depth=1 / me=1 / subme=2 / merange=57 / no-rect / no-amp / max-merge=2 / temporal-mvp / early-skip / rskip / rdpenalty=0 / no-tskip / no-tskip-fast / strong-intra-smoothing / no-lossless / no-cu-lossless / no-constrained-intra / fast-intra / open-gop / no-temporal-layers / interlace=0 / keyint=250 / min-keyint=23 / scenecut=40 / rc-lookahead=20 / lookahead-slices=5 / bframes=4 / bframe-bias=0 / b-adapt=2 / ref=3 / limit-refs=3 / no-limit-modes / weightp / no-weightb / aq-mode=3 / qg-size=32 / aq-strength=1.00 / cbqpoffs=0 / crqpoffs=0 / rd=3 / psy-rd=0.00 / rdoq-level=0 / psy-rdoq=0.00 / log2-max-poc-lsb=8 / no-rd-refine / signhide / deblock=0:0 / sao / no-sao-non-deblock / b-pyramid / cutree / no-intra-refresh / rc=2 / pass / bitrate=1500 / qcomp=0.60 / qpmin=0 / qpmax=69 / qpstep=4 / cplxblur=20.0 / qblur=1.0 / vbv-maxrate=8000 / vbv-bufsize=4000 / ipratio=1.40 / pbratio=1.30
Language                                 : English
Default                                  : Yes
Forced                                   : No

Audio #1
ID                                       : 2
Format                                   : AAC
Format/Info                              : Advanced Audio Codec
Format profile                           : LC
Codec ID                                 : A_AAC
Duration                                 : 2 h 12 min
Bit rate                                 : 203 kb/s
Channel(s)                               : 6 channels
Channel positions                        : Front: L C R, Side: L R, LFE
Sampling rate                            : 48.0 kHz
Frame rate                               : 46.875 FPS (1024 spf)
Compression mode                         : Lossy
Delay relative to video                  : 20 ms
Stream size                              : 192 MiB (10%)
Language                                 : English
Default                                  : No
Forced                                   : No

Audio #2
ID                                       : 3
Format                                   : AAC
Format/Info                              : Advanced Audio Codec
Format profile                           : HE-AAC / LC
Codec ID                                 : A_AAC
Duration                                 : 2 h 12 min
Bit rate                                 : 82.6 kb/s
Channel(s)                               : 2 channels
Channel positions                        : Front: L R
Sampling rate                            : 48.0 kHz / 24.0 kHz
Frame rate                               : 23.438 FPS (1024 spf)
Compression mode                         : Lossy
Delay relative to video                  : 40 ms
Stream size                              : 78.1 MiB (4%)
Language                                 : French
Default                                  : No
Forced                                   : No

Audio #3
ID                                       : 4
Format                                   : AAC
Format/Info                              : Advanced Audio Codec
Format profile                           : HE-AAC / LC
Codec ID                                 : A_AAC
Duration                                 : 2 h 12 min
Bit rate                                 : 82.4 kb/s
Channel(s)                               : 2 channels
Channel positions                        : Front: L R
Sampling rate                            : 48.0 kHz / 24.0 kHz
Frame rate                               : 23.438 FPS (1024 spf)
Compression mode                         : Lossy
Delay relative to video                  : 40 ms
Stream size                              : 77.9 MiB (4%)
Language                                 : Spanish
Default                                  : No
Forced                                   : No

Audio #4
ID                                       : 5
Format                                   : AAC
Format/Info                              : Advanced Audio Codec
Format profile                           : HE-AAC / LC
Codec ID                                 : A_AAC
Duration                                 : 2 h 12 min
Bit rate                                 : 66.2 kb/s
Channel(s)                               : 2 channels
Channel positions                        : Front: L R
Sampling rate                            : 48.0 kHz / 24.0 kHz
Frame rate                               : 23.438 FPS (1024 spf)
Compression mode                         : Lossy
Delay relative to video                  : 40 ms
Stream size                              : 62.2 MiB (3%)
Title                                    : Commentary
Language                                 : English
Default                                  : No
Forced                                   : No

Subtitle #1
ID                                       : 6
Format                                   : PGS
Muxing mode                              : zlib
Codec ID                                 : S_HDMV/PGS
Codec ID/Info                            : Picture based subtitle format used on BDs/HD-DVDs
Duration                                 : 2 h 9 min
Bit rate                                 : 37.8 kb/s
Count of elements                        : 3755
Stream size                              : 35.0 MiB (2%)
Language                                 : English
Default                                  : No
Forced                                   : No

Subtitle #2
ID                                       : 7
Format                                   : VobSub
Muxing mode                              : zlib
Codec ID                                 : S_VOBSUB
Codec ID/Info                            : Picture based subtitle format used on DVDs
Duration                                 : 2 h 9 min
Bit rate                                 : 10.9 kb/s
Count of elements                        : 1878
Stream size                              : 10.1 MiB (1%)
Language                                 : English
Default                                  : No
Forced                                   : No

Subtitle #3
ID                                       : 8
Format                                   : VobSub
Muxing mode                              : zlib
Codec ID                                 : S_VOBSUB
Codec ID/Info                            : Picture based subtitle format used on DVDs
Duration                                 : 2 h 11 min
Bit rate                                 : 6 284 b/s
Count of elements                        : 1470
Stream size                              : 5.92 MiB (0%)
Language                                 : English
Default                                  : No
Forced                                   : No

Subtitle #4
ID                                       : 9
Format                                   : VobSub
Muxing mode                              : zlib
Codec ID                                 : S_VOBSUB
Codec ID/Info                            : Picture based subtitle format used on DVDs
Duration                                 : 2 h 6 min
Bit rate                                 : 5 829 b/s
Count of elements                        : 1325
Stream size                              : 5.26 MiB (0%)
Language                                 : Spanish
Default                                  : No
Forced                                   : No

Subtitle #5
ID                                       : 10
Format                                   : VobSub
Muxing mode                              : zlib
Codec ID                                 : S_VOBSUB
Codec ID/Info                            : Picture based subtitle format used on DVDs
Duration                                 : 2 h 6 min
Bit rate                                 : 7 948 b/s
Count of elements                        : 1422
Stream size                              : 7.17 MiB (0%)
Language                                 : Chinese
Default                                  : No
Forced                                   : No

Subtitle #6
ID                                       : 11
Format                                   : VobSub
Muxing mode                              : zlib
Codec ID                                 : S_VOBSUB
Codec ID/Info                            : Picture based subtitle format used on DVDs
Duration                                 : 2 h 6 min
Bit rate                                 : 4 203 b/s
Count of elements                        : 1143
Stream size                              : 3.79 MiB (0%)
Language                                 : Korean
Default                                  : No
Forced                                   : No

Subtitle #7
ID                                       : 12
Format                                   : VobSub
Muxing mode                              : zlib
Codec ID                                 : S_VOBSUB
Codec ID/Info                            : Picture based subtitle format used on DVDs
Duration                                 : 1 h 53 min
Bit rate                                 : 218 b/s
Count of elements                        : 44
Stream size                              : 182 KiB (0%)
Language                                 : French
Default                                  : No
Forced                                   : No

Subtitle #8
ID                                       : 13
Format                                   : VobSub
Muxing mode                              : zlib
Codec ID                                 : S_VOBSUB
Codec ID/Info                            : Picture based subtitle format used on DVDs
Duration                                 : 1 h 49 min
Bit rate                                 : 139 b/s
Count of elements                        : 30
Stream size                              : 112 KiB (0%)
Language                                 : Spanish
Default                                  : No
Forced                                   : No

Subtitle #9
ID                                       : 14
Format                                   : UTF-8
Codec ID                                 : S_TEXT/UTF8
Codec ID/Info                            : UTF-8 Plain Text
Duration                                 : 2 h 14 min
Bit rate                                 : 67 b/s
Count of elements                        : 1469
Stream size                              : 67.0 KiB (0%)
Language                                 : Arabic
Default                                  : No
Forced                                   : No

Subtitle #10
ID                                       : 15
Format                                   : UTF-8
Codec ID                                 : S_TEXT/UTF8
Codec ID/Info                            : UTF-8 Plain Text
Duration                                 : 2 h 6 min
Bit rate                                 : 48 b/s
Count of elements                        : 1557
Stream size                              : 45.0 KiB (0%)
Language                                 : Portuguese
Default                                  : No
Forced                                   : No

Subtitle #11
ID                                       : 16
Format                                   : UTF-8
Codec ID                                 : S_TEXT/UTF8
Codec ID/Info                            : UTF-8 Plain Text
Duration                                 : 2 h 7 min
Bit rate                                 : 40 b/s
Count of elements                        : 1301
Stream size                              : 37.8 KiB (0%)
Language                                 : Danish
Default                                  : No
Forced                                   : No

Subtitle #12
ID                                       : 17
Format                                   : UTF-8
Codec ID                                 : S_TEXT/UTF8
Codec ID/Info                            : UTF-8 Plain Text
Duration                                 : 2 h 6 min
Bit rate                                 : 41 b/s
Count of elements                        : 1428
Stream size                              : 38.8 KiB (0%)
Language                                 : Dutch
Default                                  : No
Forced                                   : No

Subtitle #13
ID                                       : 18
Format                                   : UTF-8
Codec ID                                 : S_TEXT/UTF8
Codec ID/Info                            : UTF-8 Plain Text
Duration                                 : 2 h 6 min
Bit rate                                 : 48 b/s
Count of elements                        : 1492
Stream size                              : 44.9 KiB (0%)
Language                                 : English
Default                                  : No
Forced                                   : No

Subtitle #14
ID                                       : 19
Format                                   : UTF-8
Codec ID                                 : S_TEXT/UTF8
Codec ID/Info                            : UTF-8 Plain Text
Duration                                 : 2 h 6 min
Bit rate                                 : 70 b/s
Count of elements                        : 1196
Stream size                              : 65.4 KiB (0%)
Language                                 : Persian
Default                                  : No
Forced                                   : No

Subtitle #15
ID                                       : 20
Format                                   : UTF-8
Codec ID                                 : S_TEXT/UTF8
Codec ID/Info                            : UTF-8 Plain Text
Duration                                 : 2 h 6 min
Bit rate                                 : 50 b/s
Count of elements                        : 1488
Stream size                              : 46.2 KiB (0%)
Language                                 : Finnish
Default                                  : No
Forced                                   : No

Subtitle #16
ID                                       : 21
Format                                   : UTF-8
Codec ID                                 : S_TEXT/UTF8
Codec ID/Info                            : UTF-8 Plain Text
Duration                                 : 2 h 6 min
Bit rate                                 : 38 b/s
Count of elements                        : 1188
Stream size                              : 35.8 KiB (0%)
Language                                 : French
Default                                  : No
Forced                                   : No

Subtitle #17
ID                                       : 22
Format                                   : UTF-8
Codec ID                                 : S_TEXT/UTF8
Codec ID/Info                            : UTF-8 Plain Text
Duration                                 : 2 h 11 min
Bit rate                                 : 44 b/s
Count of elements                        : 1348
Stream size                              : 42.4 KiB (0%)
Language                                 : Hungarian
Default                                  : No
Forced                                   : No

Subtitle #18
ID                                       : 23
Format                                   : UTF-8
Codec ID                                 : S_TEXT/UTF8
Codec ID/Info                            : UTF-8 Plain Text
Duration                                 : 2 h 6 min
Bit rate                                 : 50 b/s
Count of elements                        : 1342
Stream size                              : 46.9 KiB (0%)
Language                                 : Norwegian
Default                                  : No
Forced                                   : No

Subtitle #19
ID                                       : 24
Format                                   : UTF-8
Codec ID                                 : S_TEXT/UTF8
Codec ID/Info                            : UTF-8 Plain Text
Duration                                 : 2 h 0 min
Bit rate                                 : 94 b/s
Count of elements                        : 1480
Stream size                              : 83.6 KiB (0%)
Language                                 : Russian
Default                                  : No
Forced                                   : No

Subtitle #20
ID                                       : 25
Format                                   : UTF-8
Codec ID                                 : S_TEXT/UTF8
Codec ID/Info                            : UTF-8 Plain Text
Duration                                 : 2 h 6 min
Bit rate                                 : 42 b/s
Count of elements                        : 1311
Stream size                              : 39.1 KiB (0%)
Language                                 : Swedish
Default                                  : No
Forced                                   : No

Menu
00:00:00.000                             : en:Chapter 01
00:02:21.391                             : en:Chapter 02
00:03:57.779                             : en:Chapter 03
00:05:11.936                             : en:Chapter 04
00:06:09.827                             : en:Chapter 05
00:07:50.928                             : en:Chapter 06
00:11:58.134                             : en:Chapter 07
00:13:17.922                             : en:Chapter 08
00:14:03.092                             : en:Chapter 09
00:14:18.357                             : en:Chapter 10
00:16:58.308                             : en:Chapter 11
00:21:00.467                             : en:Chapter 12
00:22:41.985                             : en:Chapter 13
00:24:53.241                             : en:Chapter 14
00:26:50.317                             : en:Chapter 15
00:28:50.228                             : en:Chapter 16
00:33:24.460                             : en:Chapter 17
00:34:08.629                             : en:Chapter 18
00:35:26.415                             : en:Chapter 19
00:38:18.671                             : en:Chapter 20
00:42:33.592                             : en:Chapter 21
00:43:24.143                             : en:Chapter 22
00:45:18.424                             : en:Chapter 23
00:47:59.418                             : en:Chapter 24
00:52:39.030                             : en:Chapter 25
00:56:49.155                             : en:Chapter 26
00:57:55.221                             : en:Chapter 27
00:58:38.723                             : en:Chapter 28
01:00:49.479                             : en:Chapter 29
01:01:38.861                             : en:Chapter 30
01:04:18.396                             : en:Chapter 31
01:07:44.101                             : en:Chapter 32
01:12:58.290                             : en:Chapter 33
01:15:19.056                             : en:Chapter 34
01:19:14.750                             : en:Chapter 35
01:26:10.790                             : en:Chapter 36
01:28:49.782                             : en:Chapter 37
01:29:27.236                             : en:Chapter 38
01:30:06.943                             : en:Chapter 39
01:35:43.446                             : en:Chapter 40
01:38:57.973                             : en:Chapter 41
01:41:26.747                             : en:Chapter 42
01:45:24.609                             : en:Chapter 43
01:47:45.000                             : en:Chapter 44
01:48:10.942                             : en:Chapter 45
01:49:49.958                             : en:Chapter 46
01:51:09.412                             : en:Chapter 47
01:54:16.015                             : en:Chapter 48
01:58:22.762                             : en:Chapter 49
01:59:44.260                             : en:Chapter 50
02:02:00.604                             : en:Chapter 51
02:03:48.838                             : en:Chapter 52
02:05:13.130                             : en:Chapter 53
02:06:28.122                             : en:Chapter 54
02:07:19.048                             : en:Chapter 55
02:12:06.919                             : en:Chapter 56



Source Information
Release: The Die Hard Bluray boxed set in hand



Note From UTR
Whilst we are happy for our releases to be re-posted on a platform we aren't on, please do so in an 'as-is' format. We ask that you do not create a new torrent, include all descriptions you see above including the UTR logo, tags, notes and screenshots. If you'd like to become a permanent poster on a website we don't post to, feel free to get in contact with a UTR member.
If possible please donate for seedboxes.
BTC - 1QA5fum5AyXvWzdVCkQzUNvw3Ef15fHRaR
Monero - 8AuksPSzY7fen3HHT1a2342PgVy4J93MKfXG3AAcayV76miTyJ3sNfn38srwrpLirGfeR5DwhTL8GW8pdQgT7bZcJ25ynMx
Dash - Xh4mNs6uwZdpCEX2HSEVwGvPD7yKxZ1Ccd
Ethereum - 0x51c06c94e74c16735a7a6e841ad29fc90a84eb1f


Category:Movies > HEVC/x265
Lang:English  English
Total Size:9.57 GB
Info Hash:f03a0715a3c92e8fc58602cacd490cff1bbbf414
Added By:UTR
Date Added:26-12-2019 17:42:42

Files

File List: 
 File Size
Die Hard 1 1988 (1080p x265 10bit Joy)/Die Hard 1988 (1080p x265 10bit Joy).mkv1.86 GB
Die Hard 1 1988 (1080p x265 10bit Joy)/Encoded by JoyBell.txt459.00 B
Die Hard 1 1988 (1080p x265 10bit Joy)/Extras/Deleted Scene - Hacking the Computer.mkv3 MB
Die Hard 1 1988 (1080p x265 10bit Joy)/Extras/Extended Scene - Code 2.mkv2 MB
Die Hard 1 1988 (1080p x265 10bit Joy)/Extras/News Segment on Hans Gruber.mkv15 MB
Die Hard 1 1988 (1080p x265 10bit Joy)/Extras/Production Stills.mkv9 MB
Die Hard 1 1988 (1080p x265 10bit Joy)/Extras/Special Effects - Hellicopter and Building.mkv14 MB
Die Hard 1 1988 (1080p x265 10bit Joy)/Extras/Teasers Pack.mkv10 MB
Die Hard 1 1988 (1080p x265 10bit Joy)/Extras/Trailer - Die Hard 2.mkv4 MB
Die Hard 1 1988 (1080p x265 10bit Joy)/Extras/Trailer - Die Hard 3.mkv29 MB
Die Hard 1 1988 (1080p x265 10bit Joy)/Extras/Trailer - Live Free or Die Hard.mkv22 MB
Die Hard 1 1988 (1080p x265 10bit Joy)/Extras/Trailer 1.mkv3 MB
Die Hard 1 1988 (1080p x265 10bit Joy)/Extras/Trailer 2.mkv6 MB
Die Hard 1 1988 (1080p x265 10bit Joy)/folder.jpg53.65 kB
Die Hard 1 1988 (1080p x265 10bit Joy)/How to play HEVC (THIS FILE).txt2.88 kB
Die Hard 1 1988 (1080p x265 10bit Joy)/Ninite K-Lite Codecs Unattended Silent Installer and Updater.website561.00 B
Die Hard 2 Die Harder 1990 (1080p x265 10bit Joy)/Die Hard 2 Die Harder 1990 (1080p x265 10bit Joy).mkv1.69 GB
Die Hard 2 Die Harder 1990 (1080p x265 10bit Joy)/Encoded by JoyBell.txt459.00 B
Die Hard 2 Die Harder 1990 (1080p x265 10bit Joy)/Extras/Coming up with a better Die Hard 1.mkv13 MB
Die Hard 2 Die Harder 1990 (1080p x265 10bit Joy)/Extras/Deleted Scenes.mkv11 MB
Die Hard 2 Die Harder 1990 (1080p x265 10bit Joy)/Extras/Die Hard 2 Teasers.mkv2 MB
Die Hard 2 Die Harder 1990 (1080p x265 10bit Joy)/Extras/Fighting in the Luggage Room.mkv23 MB
Die Hard 2 Die Harder 1990 (1080p x265 10bit Joy)/Extras/Filming on the Wing.mkv4 MB
Die Hard 2 Die Harder 1990 (1080p x265 10bit Joy)/Extras/Landing on the Plan.mkv2 MB
Die Hard 2 Die Harder 1990 (1080p x265 10bit Joy)/Extras/Making of Die Hard 2.mkv55 MB
Die Hard 2 Die Harder 1990 (1080p x265 10bit Joy)/Extras/Snow Mobile Chase.mkv14 MB
Die Hard 2 Die Harder 1990 (1080p x265 10bit Joy)/Extras/Special Effects Planes.mkv4 MB
Die Hard 2 Die Harder 1990 (1080p x265 10bit Joy)/Extras/Story Boards 2.mkv8 MB
Die Hard 2 Die Harder 1990 (1080p x265 10bit Joy)/Extras/Story Boards.mkv6 MB
Die Hard 2 Die Harder 1990 (1080p x265 10bit Joy)/Extras/The Villians.mkv11 MB
Die Hard 2 Die Harder 1990 (1080p x265 10bit Joy)/Extras/Trailer Pack.mkv12 MB
Die Hard 2 Die Harder 1990 (1080p x265 10bit Joy)/Extras/Visual Effects Breakdown.mkv2 MB
Die Hard 2 Die Harder 1990 (1080p x265 10bit Joy)/folder.jpg52.84 kB
Die Hard 2 Die Harder 1990 (1080p x265 10bit Joy)/How to play HEVC (THIS FILE).txt2.88 kB
Die Hard 2 Die Harder 1990 (1080p x265 10bit Joy)/Ninite K-Lite Codecs Unattended Silent Installer and Updater.website561.00 B
Die Hard 3 With a Vengeance 1995 (1080p x265 10bit Joy)/Die Hard 3 With a Vengeance 1995 (1080p x265 10bit Joy).mkv1.78 GB
Die Hard 3 With a Vengeance 1995 (1080p x265 10bit Joy)/Encoded by JoyBell.txt459.00 B
Die Hard 3 With a Vengeance 1995 (1080p x265 10bit Joy)/Extras/A Look at Die Hard with a Vengence.mkv102 MB
Die Hard 3 With a Vengeance 1995 (1080p x265 10bit Joy)/Extras/A Night To Die For.mkv95 MB
Die Hard 3 With a Vengeance 1995 (1080p x265 10bit Joy)/Extras/Bomb on a Train.mkv37 MB
Die Hard 3 With a Vengeance 1995 (1080p x265 10bit Joy)/Extras/Charcters of Die Hard 3.mkv19 MB
Die Hard 3 With a Vengeance 1995 (1080p x265 10bit Joy)/Extras/Deleted Scene.mkv7 MB
Die Hard 3 With a Vengeance 1995 (1080p x265 10bit Joy)/Extras/Out Takes.mkv11 MB
Die Hard 3 With a Vengeance 1995 (1080p x265 10bit Joy)/Extras/Planning the Building Explosion.mkv43 MB
Die Hard 3 With a Vengeance 1995 (1080p x265 10bit Joy)/Extras/Planning the Dash Through the Park.mkv86 MB
Die Hard 3 With a Vengeance 1995 (1080p x265 10bit Joy)/Extras/Root for the Underdog.mkv26 MB
Die Hard 3 With a Vengeance 1995 (1080p x265 10bit Joy)/Extras/Simon Says.mkv13 MB
Die Hard 3 With a Vengeance 1995 (1080p x265 10bit Joy)/Extras/Story Boards - The Tunnel.mkv17 MB
Die Hard 3 With a Vengeance 1995 (1080p x265 10bit Joy)/Extras/Trailer for Did Hard 4.mkv58 MB
Die Hard 3 With a Vengeance 1995 (1080p x265 10bit Joy)/Extras/Trailers for Die Hard 1 & 2.mkv10 MB
Die Hard 3 With a Vengeance 1995 (1080p x265 10bit Joy)/Extras/TV Spots.mkv22 MB
Die Hard 3 With a Vengeance 1995 (1080p x265 10bit Joy)/Extras/Two Die Hard 3 Trailers.mkv16 MB
Die Hard 3 With a Vengeance 1995 (1080p x265 10bit Joy)/folder.jpg698.02 kB
Die Hard 3 With a Vengeance 1995 (1080p x265 10bit Joy)/How to play HEVC (THIS FILE).txt3.03 kB
Die Hard 3 With a Vengeance 1995 (1080p x265 10bit Joy)/Ninite K-Lite Codecs Unattended Silent Installer and Updater.website561.00 B
Die Hard 4 Live Free or Die Hard 2007 (1080p x265 10bit Joy)/Die Hard 4 Live Free or Die Hard 2007 (1080p x265 10bit Joy).mkv1.87 GB
Die Hard 4 Live Free or Die Hard 2007 (1080p x265 10bit Joy)/Encoded by JoyBell.txt452.00 B
Die Hard 4 Live Free or Die Hard 2007 (1080p x265 10bit Joy)/Extras/Analog Hero in a digital World - Making of Live Free or Die Hard.mkv14 MB
Die Hard 4 Live Free or Die Hard 2007 (1080p x265 10bit Joy)/Extras/Attack of the Franchise.mkv23 MB
Die Hard 4 Live Free or Die Hard 2007 (1080p x265 10bit Joy)/Extras/Cast and Characters.mkv31 MB
Die Hard 4 Live Free or Die Hard 2007 (1080p x265 10bit Joy)/Extras/Conversation with Willis and Smith.mkv32 MB
Die Hard 4 Live Free or Die Hard 2007 (1080p x265 10bit Joy)/Extras/Eyecandy.mkv38 MB
Die Hard 4 Live Free or Die Hard 2007 (1080p x265 10bit Joy)/Extras/Fox Legacy.mkv9 MB
Die Hard 4 Live Free or Die Hard 2007 (1080p x265 10bit Joy)/Extras/Guyz Nite - Die Hard.mkv23 MB
Die Hard 4 Live Free or Die Hard 2007 (1080p x265 10bit Joy)/Extras/Guyz Nite Interview.mkv24 MB
Die Hard 4 Live Free or Die Hard 2007 (1080p x265 10bit Joy)/Extras/Sound and Fury.mkv35 MB
Die Hard 4 Live Free or Die Hard 2007 (1080p x265 10bit Joy)/Extras/Symphonic Boom!.mkv19 MB
Die Hard 4 Live Free or Die Hard 2007 (1080p x265 10bit Joy)/Extras/Texture and Tone.mkv32 MB
Die Hard 4 Live Free or Die Hard 2007 (1080p x265 10bit Joy)/Extras/The Cutting Room.mkv31 MB
Die Hard 4 Live Free or Die Hard 2007 (1080p x265 10bit Joy)/Extras/The World of D.I..mkv20 MB
Die Hard 4 Live Free or Die Hard 2007 (1080p x265 10bit Joy)/Extras/Trailer - Die Hard 2.mkv4 MB
Die Hard 4 Live Free or Die Hard 2007 (1080p x265 10bit Joy)/Extras/Trailer - Die Hard 3.mkv13 MB
Die Hard 4 Live Free or Die Hard 2007 (1080p x265 10bit Joy)/Extras/Trailer - Die Hard 4.mkv32 MB
Die Hard 4 Live Free or Die Hard 2007 (1080p x265 10bit Joy)/Extras/Trailer - The Siege.mkv20 MB
Die Hard 4 Live Free or Die Hard 2007 (1080p x265 10bit Joy)/Extras/Unimaginable Feats.mkv34 MB
Die Hard 4 Live Free or Die Hard 2007 (1080p x265 10bit Joy)/folder.jpg713.44 kB
Die Hard 4 Live Free or Die Hard 2007 (1080p x265 10bit Joy)/How to play HEVC (THIS FILE).txt3.03 kB
Die Hard 4 Live Free or Die Hard 2007 (1080p x265 10bit Joy)/Ninite K-Lite Codecs Unattended Silent Installer and Updater.website561.00 B
Die Hard Decoded - Bonus Disk/Action - Explosive Effects.mkv134 MB
Die Hard Decoded - Bonus Disk/Die Hard - Ode to Joy (title Screen).mkv33 MB
Die Hard Decoded - Bonus Disk/Fight Sequences - Punishing Blows.mkv55 MB
Die Hard Decoded - Bonus Disk/folder.jpg757.81 kB
Die Hard Decoded - Bonus Disk/John McClane - Modern Day Hero.mkv104 MB
Die Hard Decoded - Bonus Disk/Making of Die Semi-Hard.mkv13 MB
Die Hard Decoded - Bonus Disk/Origins - Reinventing the Action Genre.mkv179 MB
Die Hard Decoded - Bonus Disk/Sidekicks - Along for the Ride.mkv128 MB
Die Hard Decoded - Bonus Disk/The Cleveland Show S03E07 Die Semi-Hard.mkv186 MB
Die Hard Decoded - Bonus Disk/The Legacy - The Right Hero for the Right Time.mkv57 MB
Die Hard Decoded - Bonus Disk/Three Die Hard Trailers.mkv48 MB
Die Hard Decoded - Bonus Disk/Trailer - Die Hard 2.mkv4 MB
Die Hard Decoded - Bonus Disk/Trailer - Die Hard 3.mkv41 MB
Die Hard Decoded - Bonus Disk/Trailer - Die Hard 4.mkv30 MB
Die Hard Decoded - Bonus Disk/Trailer - Die Hard 5.mkv25 MB
Die Hard Decoded - Bonus Disk/Villains - Bad to the Bone 16.mkv108 MB
folder.jpg351.83 kB



Comments

<< Previous      Next >>
1 - 1

[Report] Posted: 27-12-2019 at 14:49:59
ambiguity


Excellent Collection and Fantastic Encoding as always thanks to Joybell and the UTR team.  But there is an issue.  The collection is missing A Good Day to Die Hard from 2013.

1 - 1
<< Previous      Next >>