0 homeland Birds of Prey (and the Fantabulous Emancipation of One Harley Quinn) 2020 the call of the wild 2020 Gretel and Hansel 2020 The Hunt 2020 outlander The Gentlemen 2019 better call saul s05e08 Trolls World Tour 2020 money heist all rise Westworld s03e02 Underwater 2020 Good Girls S03E08 jumanji the next level 2019 Bull S04E18 Manifest evo tiger king xxx the walking dead rq.mp4 fantasy island 2020 yts sonic the hedgehog 2020 etmovies 1917 2019 ettv Bad Boys for Life 2020 Manifest S02E13 Wwe contagion 2011 Star Wars The Rise of Skywalker 2019 westworld hindi The Walking Dead S10E14 Westworld S03E04 The Walking Dead S10E15 Below Deck Sailing Yacht S01E10 The Blacklist S07E13 Frozen II 2019 The Neighborhood S02E19 onward 2020 The Invisible Man 2020 westworld s03e03 Briarpatch S01E09 dolittle 2020 Last Week Tonight with John Oliver S07E07 Knives Out 2019 Ozark s03e07 All Rise S01E19 Bloodshot 2020 The Voice S18E08 Almost Paradise S01E02 Vivarium 2020 my spy My Spy 2020 The Platform 2019 bull etrg better call saul ddr Survive S01E01 The Rookie S02E16 ethd Homeland S08E09 The Banker 2020 ita ip man 4 
ETTV Recommended TV Shows
All.Rise.S01E19.HDTV.x264-SVA[ettv] torrent
Roswell.New.Mexico.S02E04.HDTV.x264-SVA[ettv] torrent
The.Resident.S03E20.WEB.x264-XLF[ettv] torrent
Empire.2015.S06E16.WEB.H264-iNSiDiOUS[ettv] torrent

ETTV Recommended SD
Trolls.World.Tour.2020.AMZN.HDRip,XViD-ETRG torrent
Like.A.Boss.2020.HDRip.XViD-ETRG torrent
The.Turning.2020.HDRip.XViD-ETRG torrent
Mosley.2019.HDRip.XviD.AC3-EVO torrent

ETTV Recommended HD
Gretel.and.Hansel.2020.1080p.WEB-DL.DD5.1.x264-CMRG[EtHD] torrent
Like.a.Boss.2020.1080p.WEB-DL.DD5.1.x264-CMRG[EtHD] torrent
Gold.Dust.2020.1080p.WEB-DL.H264.AC3-EVO[EtHD] torrent
Mosley.2019.1080p.WEB-DL.H264.AC3-EVO[EtHD] torrent

ETTV Recommended UHD
Dolphin.Reef.2020.UHD.2160p.WebRip.HDR.DDP.5.1.HEVC-DDR.mkv torrent
Hulk.2003.BDRip.2160p.UHD.HDR.Eng.Fre.DTS-HDMA.ETRG torrent
The.Incredible.Hulk.2008.BDRip.2160p.UHD.HDR.Eng.DTS.ETRG torrent
Stand.by.Me.1986.BDRip.2160p.UHD.HDR.Eng.TrueHD.ETRG torrent

ETTV Recommended Cam
My Spy 2020 HDCAM x264 AC3-ETRG torrent
The Hunt 2020 HDCAM x264 AC3-ETRG torrent
The Burnt Orange Heresy 2020 720p HDCAM-C1NEM4 torrent
Fantasy Island 2020 UNRATED HDTS XViD AC3-ETRG torrent

ETTV Recommended Foreign
Angrezi Medium 2020.1080p.DSNP+.WEB-DL.Hin.AAC.2.0.H265-Telly torrent
Cursed - Il maleficio (2005).720p.H264.ita.eng.Ac3-5.1.sub.ita.eng-MIRCrew torrent
1917 (2019) BRRip 720p [Hindi DD5.1] Dual-Audio x264 - KatmovieHD torrent
Har Kisse Ke Hisse Kaamyaab.2020.1080p.Itunes.WED-DL.DD.5.1.x264-Telly torrent


Download Torrent "I'll Be Home for Christmas (1998) (1080p BluRay x265 HEVC 10bit DTS 5...."

IMDB Details
Description:

N/A

Genre:

N/A

Download Torrent (Magnet)
Seeds: 56
Leechers: 27
Completed: 563 
Last Checked: 26-12-2019 17:37:16


Details
Title:I'll Be Home for Christmas (1998) (1080p BluRay x265 HEVC 10bit DTS 5....
Description:





Media Information
General
Format                                   : Matroska
Format version                           : Version 4 / Version 2
File size                                : 4.33 GiB
Duration                                 : 1 h 26 min
Overall bit rate                         : 7 182 kb/s
Encoded date                             : UTC 2019-12-25 12:54:17
Writing application                      : mkvmerge v41.0.0 ('Smarra') 64-bit
Writing library                          : libebml v1.3.9 + libmatroska v1.5.2

Video
ID                                       : 1
Format                                   : HEVC
Format/Info                              : High Efficiency Video Coding
Format profile                           : Main [email protected]@Main
Codec ID                                 : V_MPEGH/ISO/HEVC
Duration                                 : 1 h 26 min
Bit rate                                 : 5 637 kb/s
Width                                    : 1 920 pixels
Height                                   : 1 038 pixels
Display aspect ratio                     : 1.85:1
Frame rate mode                          : Constant
Frame rate                               : 23.976 (24000/1001) FPS
Color space                              : YUV
Chroma subsampling                       : 4:2:0
Bit depth                                : 10 bits
Bits/(Pixel*Frame)                       : 0.118
Stream size                              : 3.39 GiB (78%)
Writing library                          : x265 3.2+9-971180b100f8:[Windows][GCC 9.2.1][64 bit] 10bit
Encoding settings                        : cpuid=1111039 / frame-threads=2 / numa-pools=4 / wpp / no-pmode / no-pme / no-psnr / no-ssim / log-level=2 / input-csp=1 / input-res=1920x1038 / interlace=0 / total-frames=123884 / level-idc=0 / high-tier=1 / uhd-bd=0 / ref=4 / no-allow-non-conformance / no-repeat-headers / annexb / no-aud / no-hrd / info / hash=0 / no-temporal-layers / open-gop / min-keyint=23 / keyint=250 / gop-lookahead=0 / bframes=8 / b-adapt=2 / b-pyramid / bframe-bias=0 / rc-lookahead=80 / lookahead-slices=4 / scenecut=40 / radl=0 / no-splice / no-intra-refresh / ctu=64 / min-cu-size=8 / no-rect / no-amp / max-tu-size=32 / tu-inter-depth=1 / tu-intra-depth=1 / limit-tu=0 / rdoq-level=2 / dynamic-rd=0.00 / no-ssim-rd / signhide / no-tskip / nr-intra=0 / nr-inter=0 / no-constrained-intra / no-strong-intra-smoothing / max-merge=3 / limit-refs=3 / limit-modes / me=3 / subme=3 / merange=57 / temporal-mvp / no-frame-dup / no-hme / weightp / no-weightb / no-analyze-src-pics / deblock=-1:-1 / no-sao / no-sao-non-deblock / rd=4 / selective-sao=0 / no-early-skip / no-rskip / no-fast-intra / no-tskip-fast / no-cu-lossless / b-intra / no-splitrd-skip / rdpenalty=0 / psy-rd=1.00 / psy-rdoq=2.50 / no-rd-refine / no-lossless / cbqpoffs=0 / crqpoffs=0 / rc=crf / crf=21.5 / qcomp=0.60 / qpstep=4 / stats-write=0 / stats-read=0 / ipratio=1.40 / pbratio=1.30 / aq-mode=2 / aq-strength=1.00 / cutree / zone-count=0 / no-strict-cbr / qg-size=32 / no-rc-grain / qpmax=69 / qpmin=0 / no-const-vbv / sar=0 / overscan=0 / videoformat=5 / range=0 / colorprim=2 / transfer=2 / colormatrix=2 / chromaloc=0 / display-window=0 / cll=0,0 / min-luma=0 / max-luma=1023 / log2-max-poc-lsb=8 / vui-timing-info / vui-hrd-info / slices=1 / no-opt-qp-pps / no-opt-ref-list-length-pps / no-multi-pass-opt-rps / scenecut-bias=0.05 / no-opt-cu-delta-qp / no-aq-motion / no-hdr / no-hdr-opt / no-dhdr10-opt / no-idr-recovery-sei / analysis-reuse-level=5 / scale-factor=0 / refine-intra=0 / refine-inter=0 / refine-mv=1 / refine-ctu-distortion=0 / no-limit-sao / ctu-info=0 / no-lowpass-dct / refine-analysis-type=0 / copy-pic=1 / max-ausize-factor=1.0 / no-dynamic-refine / no-single-sei / no-hevc-aq / no-svt / no-field / qp-adaptation-range=1.00
Default                                  : Yes
Forced                                   : No

Audio
ID                                       : 2
Format                                   : DTS
Format/Info                              : Digital Theater Systems
Mode                                     : 16
Format settings, Endianness              : Big
Codec ID                                 : A_DTS
Duration                                 : 1 h 26 min
Bit rate mode                            : Constant
Bit rate                                 : 1 509 kb/s
Channel(s)                               : 6 channels
Channel positions                        : Front: L C R, Side: L R, LFE
Sampling rate                            : 48.0 kHz
Frame rate                               : 93.750 FPS (512 spf)
Bit depth                                : 24 bits
Compression mode                         : Lossy
Stream size                              : 931 MiB (21%)
Title                                    : DTS-HD Master Audio / 5.1 / 48 kHz / 3805 kbps / 24-bit
Language                                 : English
Default                                  : Yes
Forced                                   : No

Subtitle
ID                                       : 3
Format                                   : PGS
Muxing mode                              : zlib
Codec ID                                 : S_HDMV/PGS
Codec ID/Info                            : Picture based subtitle format used on BDs/HD-DVDs
Duration                                 : 1 h 25 min
Bit rate                                 : 90.6 kb/s
Count of elements                        : 2858
Stream size                              : 55.7 MiB (1%)
Language                                 : English
Default                                  : Yes
Forced                                   : No

Menu
00:00:00.000                             : en:Opening Credits
00:04:32.647                             : en:Allie
00:08:46.651                             : en:Shiny Red Porsche
00:13:49.704                             : en:Revenge of the Jocks
00:18:26.105                             : en:The Middle of Nowhere
00:24:51.740                             : en:North Pole or Bust
00:32:05.715                             : en:Chasing Mrs. Claus
00:38:53.248                             : en:A New Way Home
00:48:27.696                             : en:A Lesson in "Ho Ho Ho"
00:52:02.411                             : en:The Honeymoon Suite
01:01:02.868                             : en:The Santa 5K Run
01:08:40.616                             : en:Allie Alone
01:10:38.776                             : en:Riding with Ringo
01:12:13.913                             : en:5:45 PM
01:15:09.422                             : en:A Real Kiss
01:20:20.816                             : en:Jake's Christmas Parade
01:21:43.690                             : en:End Credits



Source Information
Release: Unknown Source/NO-GROUP



Note From UTR
Whilst we are happy for our releases to be re-posted on a platform we aren't on, please do so in an 'as-is' format. We ask that you do not create a new torrent, include all descriptions you see above including the UTR logo, tags, notes and screenshots. If you'd like to become a permanent poster on a website we don't post to, feel free to get in contact with a UTR member.
If possible please donate for seedboxes.
BTC - 1QA5fum5AyXvWzdVCkQzUNvw3Ef15fHRaR
Monero - 8AuksPSzY7fen3HHT1a2342PgVy4J93MKfXG3AAcayV76miTyJ3sNfn38srwrpLirGfeR5DwhTL8GW8pdQgT7bZcJ25ynMx
Dash - Xh4mNs6uwZdpCEX2HSEVwGvPD7yKxZ1Ccd
Ethereum - 0x51c06c94e74c16735a7a6e841ad29fc90a84eb1f

Category:Movies > HEVC/x265
Lang:English  English
Total Size:4.33 GB
Info Hash:c250009507a93675221d3173f1bad1de8ad9c72a
Added By:UTR
Date Added:26-12-2019 17:37:09

Files

File List: 
 File Size
I'll Be Home for Christmas (1998).1080p.BluRay.x265.10bit.DTS.5.1-Qman[UTR].mkv4.33 GB



Comments

There are currently no comments. Be the first one to write something !