Palm Springs 2020 The Kissing Booth 2 2020 Legacy of Lies 2020 Mortal 2020 YELLOWSTONE Hindi Westworld The Silencing 2020 Ita wwe the umbrella academy ettv Made in Italy 2020 The Old Guard 2020 The Gentlemen 2019 formula 1 nos4a2 stargirl Seal Team The Fugitive S01E01 What We Found 2020 SUPERNATURAL  Black Is King 2020 UFC rq.mp4 Marvels Agents of S.H.I.E.L.D. S07E11 Scoob 2020 etrg Deathstroke Knights and Dragons - The Movie 2020 Ava 2020 Work It 2020 Deep Blue Sea 3 2020 Yellowstone S03E07 The Secret Garden 2020 Doom Patrol s02e09 Knives Out 2019 xxx ethd perry mason the 100 Mulan 2020 Hamilton 2020 Peninsula 2020 The Umbrella Academy s02e09 The Secret Dare to Dream 2020 etmovies Greyhound 2020 Paydirt 2020 Star Trek Lower Decks s01e01 f1 motogp An American Pickle 2020 Blindspot The Rental 2020 Coma 2019 Avengers Endgame 2019 doom patrol Unhinged 2020 Trolls World Tour 2020 yts The Tax Collector 2020 2160p 0 Bad Boys for Life 2020 Black Water Abyss 2020 Joker 2019 Greenland 2020 ddr The 100 S07E10 evo The Outpost 2020 
Warning! Use a VPN When Downloading Torrents!
Your IP Address is 3.231.25.104. Location United States
Your Internet Provider can see when you download torrents! Hide your IP Address with a VPN
ETTV warns: You should use VPN to hide your torrenting. HIDE ME NOW
ETTV Recommended TV Shows
9-1-1 Season 3 Complete 720p AMZN WEB-DL x264 [i c] torrent
Bull 2016 Season 4 Complete 720p AMZN WEBRip x264 [i c] torrent
Helter.Skelter.S01E03.Nobody.Joins.a.Cult.720p.AMZN.WEBRip.DDP5.1.x264-NTG[ettv] torrent
The.UnXplained.S02E13.WEB.h264-TRUMP[ettv] torrent
We.Hunt.Together.S01E01.720p.WEB.H264-OATH[ettv] torrent
P-Valley.S01E05.WEB.H264-BTX[ettv] torrent
The Rookie Season 2 Complete 720p WEB x264 [i c] torrent
Crazyhead.S01.1080p.WEB.AAC2.0.x265-LUMI torrent

ETTV Recommended SD
City Beneath the Sea [1953 - USA] adventure torrent
City.of.Salt.2020.HDRip.XviD.AC3-EVO[EtMovies] torrent
Stalkers.Prey.2.2020.HDRip.XviD.AC3-EVO[EtMovies] torrent
G-Loc.2020.DVDRip.AC3.X264-CMRG torrent

ETTV Recommended HD
U-571  (War Drama 2000)  Matthew McConaughey  720p  BrRip torrent
The Alien Factor [1978 - USA] sci fi torrent
Annihilation - Horror 2018 Eng Ita Rus Multi-Subs 720p [H264-mp4] torrent
Moonraker (1979)-JAMES BOND-[Roger Moore] 1080p H264 DolbyD 5.1 ūüíé nickarad torrent

ETTV Recommended UHD
Fargo.1996.HDR.2160p.WebRip.DD.5.1.HEVC-DDR.mkv torrent
Rain.Man.1988.HDR.2160p.WebRip.DD.5.1.HEVC-DDR.mkv torrent
Roman.J.Israel.Esq.2017.MULTi.2160p.HDR.WEBRip.DTS-HD.MA.5.1.HEVC-DDR.mkv torrent
Sandy.Wexler.2017.2160p.HDR.WEBRip.DD5.1.HEVC-DDR.mkv torrent
The.Week.Of.2018.2160p.HDR.WEBRip.DD5.1.HEVC-DDR.mkv torrent
Star Wars Return of the Jedi 1983 2160p UHD-Film OTD83 v1.0 oohteedee torrent

ETTV Recommended Cam
The Hunt 2020 HDCAM x264 AC3-ETRG torrent
The Burnt Orange Heresy 2020 720p HDCAM-C1NEM4 torrent

ETTV Recommended Foreign
Geub S01 HDRIP HC [BrightShadow]  torrent
Madame X (1966).720p.H264.ita.eng.Ac3.sub.ita.eng-MIRCrew torrent
Le avventure di Wuba 2-Zhuo yao ji 2 (2020) ITA-CHI Ac3 5.1 BDRip 1080p H264 [ArMor] torrent
[+18] Couples Guest House (2020) Hindi 720p S01 Kooku WEBRip x264 AAC 300MB - MOVCR torrent
Genese.[Genesis].2018.720p.WEBRip.x264.HORiZON-ArtSubs torrent
Khoya.Khoya.Chand.2007.1080p.AMZN.WEB-DL.DDP2.0.H.264-Telly torrent

ETTV Recommended Music
Queen  - A Kind Of Magic - 1986 - MP3 - 320KBPS - G&U torrent
 Washed Out - Purple Noon (2020) [Hi-Res]  torrent
VA - New Music Releases Week 31 of 2020 (Mp3 320kbps Songs) [PMEDIA] ‚≠źÔłŹ torrent
120 Tracks Rush ~Greatest Hits Songs Playlist Spotify Mp3~[320]  kbps Beats‚≠ź torrent
Headdock - Techno Syndrome 09-08-2020 [2CD] [2Bonus CD] {1337x} torrent
[indie-folk] (2020) Skullcrusher - Skullcrusher (EP) [FLAC] [DarkAngie] torrent


Download Torrent "Seven Worlds One Planet S01 2019.UHD.BluRay.2160p.HDR.Atmos.7.1.HEVC-DDR"

IMDB Details
Description:

N/A

Genre:

N/A

Download Torrent (Magnet)
Download Torrent (File)

Seeds: 167
Leechers: 863

Uploaded by:
DDR


Category:
TV > UltraHD/4K


Details
Title:Seven Worlds One Planet S01 2019.UHD.BluRay.2160p.HDR.Atmos.7.1.HEVC-DDR
Description:





SPECS
Format                                   : Matroska
Format version                           : Version 4
File size                                :  7 x 8.03 GiB
Duration                                 : 7 x 54 min 6 s
Overall bit rate mode                    : Variable
Overall bit rate                         : 21.2 Mb/s
Movie name                               : Seven Worlds, One Planet - S01E01 - Antarctica
Encoded date                             : UTC 2019-12-09 13:52:08
Writing application                      : mkvmerge v41.0.0 ('Smarra') 64-bit
Writing library                          : libebml v1.3.9 + libmatroska v1.5.2

Video
ID                                       : 1
Format                                   : HEVC
Format/Info                              : High Efficiency Video Coding
Commercial name                          : HDR10
Format profile¬† ¬† ¬† ¬† ¬† ¬† ¬† ¬† ¬† ¬† ¬† ¬† ¬† ¬†: Main [email protected]@High
Codec ID                                 : V_MPEGH/ISO/HEVC
Duration                                 : 54 min 6 s
Bit rate                                 : 16.0 Mb/s
Width                                    : 3 840 pixels
Height                                   : 2 160 pixels
Display aspect ratio                     : 16:9
Frame rate mode                          : Constant
Frame rate                               : 23.976 (24000/1001) FPS
Color space                              : YUV
Chroma subsampling                       : 4:2:0
Bit depth                                : 10 bits
Bits/(Pixel*Frame)                       : 0.080
Stream size                              : 6.04 GiB (75%)
Language                                 : English
Default                                  : Yes
Forced                                   : No
Color range                              : Limited
Color primaries                          : BT.2020
Transfer characteristics                 : PQ
Matrix coefficients                      : BT.2020 non-constant
Mastering display color primaries        : Display P3
Mastering display luminance              : min: 0.0050 cd/m2, max: 1000 cd/m2
Maximum Content Light Level              : 996 cd/m2
Maximum Frame-Average Light Level        : 637 cd/m2

Audio #1
ID                                       : 2
Format                                   : MLP FBA 16-ch
Format/Info                              : Meridian Lossless Packing FBA with 16-channel presentation
Commercial name                          : Dolby TrueHD with Dolby Atmos
Codec ID                                 : A_TRUEHD
Duration                                 : 54 min 5 s
Bit rate mode                            : Variable
Bit rate                                 : 4 536 kb/s
Maximum bit rate                         : 7 197 kb/s
Channel(s)                               : 8 channels
Channel layout                           : L R C LFE Ls Rs Lb Rb
Sampling rate                            : 48.0 kHz
Frame rate                               : 1 200.000 FPS (40 SPF)
Compression mode                         : Lossless
Stream size                              : 1.71 GiB (21%)
Title                                    : Dolby TrueHD/Atmos Audio / 7.1-Atmos / 48 kHz / 4536 kbps / 24-bit
Language                                 : English
Default                                  : Yes
Forced                                   : No
Number of dynamic objects                : 11
Bed channel count                        : 1 channel
Bed channel configuration                : LFE

Audio #2
ID                                       : 3
Format                                   : AC-3
Format/Info                              : Audio Coding 3
Commercial name                          : Dolby Digital
Codec ID                                 : A_AC3
Duration                                 : 54 min 5 s
Bit rate mode                            : Constant
Bit rate                                 : 640 kb/s
Channel(s)                               : 6 channels
Channel layout                           : L R C LFE Ls Rs
Sampling rate                            : 48.0 kHz
Frame rate                               : 31.250 FPS (1536 SPF)
Bit depth                                : 16 bits
Compression mode                         : Lossy
Stream size                              : 248 MiB (3%)
Title                                    : Compatibility Track / Dolby Digital Audio / 5.1-EX / 48 kHz / 640 kbps
Language                                 : English
Service kind                             : Complete Main
Default                                  : No
Forced                                   : No

Text
ID                                       : 4
Format                                   : PGS
Muxing mode                              : zlib
Codec ID                                 : S_HDMV/PGS
Codec ID/Info                            : Picture based subtitle format used on BDs/HD-DVDs
Duration                                 : 53 min 4 s
Bit rate                                 : 26.4 kb/s
Count of elements                        : 756
Stream size                              : 10.0 MiB (0%)
Title                                    : SDH
Language                                 : English
Default                                  : No
Forced                                   : No


[email protected]
Category:TV > UltraHD/4K
Lang:English  English
Total Size:53.72 GB
Info Hash:683202cef0234499c052a433e3448c36ac60a9f9
Added By:DDR
Date Added:09-12-2019 15:36:42

  

Files

File List: 
 File Size
0A DDR Release !!!.txt287.00 B
0Torrent downloaded from Desitorrents.tv.txt28.00 B
Seven.Worlds.One.Planet.S01E01.Antarctica.2019.UHD.BluRay.2160p.HDR.Atmos.7.1.HEVC-DDR.mkv8.03 GB
Seven.Worlds.One.Planet.S01E02.Asia.2019.UHD.BluRay.2160p.HDR.Atmos.7.1.HEVC-DDR.mkv7.66 GB
Seven.Worlds.One.Planet.S01E03.South.America.2019.UHD.BluRay.2160p.HDR.Atmos.7.1.HEVC-DDR.mkv7.56 GB
Seven.Worlds.One.Planet.S01E04.Australia.2019.UHD.BluRay.2160p.HDR.Atmos.7.1.HEVC-DDR.mkv7.66 GB
Seven.Worlds.One.Planet.S01E05.Europe.2019.UHD.BluRay.2160p.HDR.Atmos.7.1.HEVC-DDR.mkv7.61 GB
Seven.Worlds.One.Planet.S01E06.North.America.2019.UHD.BluRay.2160p.HDR.Atmos.7.1.HEVC-DDR.mkv7.59 GB
Seven.Worlds.One.Planet.S01E07.Africa.2019.UHD.BluRay.2160p.HDR.Atmos.7.1.HEVC-DDR.mkv7.60 GB



Comments

<< Previous      Next >>
1 - 1

[Report] Posted: 12-12-2019 at 13:37:37
viski


thanks for such a great upload
David Attenborough is a great host for Documentary
thanks ddr

1 - 1
<< Previous      Next >>