Palm Springs 2020 The Kissing Booth 2 2020 Legacy of Lies 2020 Mortal 2020 YELLOWSTONE Hindi Westworld The Silencing 2020 Ita wwe the umbrella academy ettv Made in Italy 2020 The Old Guard 2020 The Gentlemen 2019 formula 1 nos4a2 stargirl Seal Team The Fugitive S01E01 What We Found 2020 SUPERNATURAL  Black Is King 2020 UFC rq.mp4 Marvels Agents of S.H.I.E.L.D. S07E11 Scoob 2020 etrg Deathstroke Knights and Dragons - The Movie 2020 Ava 2020 Work It 2020 Deep Blue Sea 3 2020 Yellowstone S03E07 The Secret Garden 2020 Doom Patrol s02e09 Knives Out 2019 xxx ethd perry mason the 100 Mulan 2020 Hamilton 2020 Peninsula 2020 The Umbrella Academy s02e09 The Secret Dare to Dream 2020 etmovies Greyhound 2020 Paydirt 2020 Star Trek Lower Decks s01e01 f1 motogp An American Pickle 2020 Blindspot The Rental 2020 Coma 2019 Avengers Endgame 2019 doom patrol Unhinged 2020 Trolls World Tour 2020 yts The Tax Collector 2020 2160p 0 Bad Boys for Life 2020 Black Water Abyss 2020 Joker 2019 Greenland 2020 ddr The 100 S07E10 evo The Outpost 2020 
Warning! Use a VPN When Downloading Torrents!
Your IP Address is 3.231.25.104. Location United States
Your Internet Provider can see when you download torrents! Hide your IP Address with a VPN
ETTV warns: You should use VPN to hide your torrenting. HIDE ME NOW
ETTV Recommended TV Shows
9-1-1 Season 3 Complete 720p AMZN WEB-DL x264 [i c] torrent
Bull 2016 Season 4 Complete 720p AMZN WEBRip x264 [i c] torrent
Helter.Skelter.S01E03.Nobody.Joins.a.Cult.720p.AMZN.WEBRip.DDP5.1.x264-NTG[ettv] torrent
The.UnXplained.S02E13.WEB.h264-TRUMP[ettv] torrent
We.Hunt.Together.S01E01.720p.WEB.H264-OATH[ettv] torrent
P-Valley.S01E05.WEB.H264-BTX[ettv] torrent
The Rookie Season 2 Complete 720p WEB x264 [i c] torrent
Crazyhead.S01.1080p.WEB.AAC2.0.x265-LUMI torrent

ETTV Recommended SD
City Beneath the Sea [1953 - USA] adventure torrent
City.of.Salt.2020.HDRip.XviD.AC3-EVO[EtMovies] torrent
Stalkers.Prey.2.2020.HDRip.XviD.AC3-EVO[EtMovies] torrent
G-Loc.2020.DVDRip.AC3.X264-CMRG torrent

ETTV Recommended HD
U-571  (War Drama 2000)  Matthew McConaughey  720p  BrRip torrent
The Alien Factor [1978 - USA] sci fi torrent
Annihilation - Horror 2018 Eng Ita Rus Multi-Subs 720p [H264-mp4] torrent
Moonraker (1979)-JAMES BOND-[Roger Moore] 1080p H264 DolbyD 5.1 ūüíé nickarad torrent

ETTV Recommended UHD
Fargo.1996.HDR.2160p.WebRip.DD.5.1.HEVC-DDR.mkv torrent
Rain.Man.1988.HDR.2160p.WebRip.DD.5.1.HEVC-DDR.mkv torrent
Roman.J.Israel.Esq.2017.MULTi.2160p.HDR.WEBRip.DTS-HD.MA.5.1.HEVC-DDR.mkv torrent
Sandy.Wexler.2017.2160p.HDR.WEBRip.DD5.1.HEVC-DDR.mkv torrent
The.Week.Of.2018.2160p.HDR.WEBRip.DD5.1.HEVC-DDR.mkv torrent
Star Wars Return of the Jedi 1983 2160p UHD-Film OTD83 v1.0 oohteedee torrent

ETTV Recommended Cam
The Hunt 2020 HDCAM x264 AC3-ETRG torrent
The Burnt Orange Heresy 2020 720p HDCAM-C1NEM4 torrent

ETTV Recommended Foreign
Geub S01 HDRIP HC [BrightShadow]  torrent
Madame X (1966).720p.H264.ita.eng.Ac3.sub.ita.eng-MIRCrew torrent
Le avventure di Wuba 2-Zhuo yao ji 2 (2020) ITA-CHI Ac3 5.1 BDRip 1080p H264 [ArMor] torrent
[+18] Couples Guest House (2020) Hindi 720p S01 Kooku WEBRip x264 AAC 300MB - MOVCR torrent
Genese.[Genesis].2018.720p.WEBRip.x264.HORiZON-ArtSubs torrent
Khoya.Khoya.Chand.2007.1080p.AMZN.WEB-DL.DDP2.0.H.264-Telly torrent

ETTV Recommended Music
Queen  - A Kind Of Magic - 1986 - MP3 - 320KBPS - G&U torrent
 Washed Out - Purple Noon (2020) [Hi-Res]  torrent
VA - New Music Releases Week 31 of 2020 (Mp3 320kbps Songs) [PMEDIA] ‚≠źÔłŹ torrent
120 Tracks Rush ~Greatest Hits Songs Playlist Spotify Mp3~[320]  kbps Beats‚≠ź torrent
Headdock - Techno Syndrome 09-08-2020 [2CD] [2Bonus CD] {1337x} torrent
[indie-folk] (2020) Skullcrusher - Skullcrusher (EP) [FLAC] [DarkAngie] torrent


Download Torrent "Abominable.2019.UHD.BluRay.2160p.HDR.TrueHD.Atmos.7.1.HEVC-DDR"

IMDB Details
Description:

Three teenagers must help a Yeti return to his family while avoiding a wealthy man and a zoologist who want it for their own needs.

Genre:

Animation, Adventure, Comedy, Family, Fantasy

Download Torrent (Magnet)
Download Torrent (File)

Seeds: 302
Leechers: 167

Uploaded by:
DDR


Category:
Movies > UltraHD/4K


Details
Title:Abominable.2019.UHD.BluRay.2160p.HDR.TrueHD.Atmos.7.1.HEVC-DDR
Description:




SPECS
Format                                   : Matroska
Format version                           : Version 4
File size                                : 14.3 GiB
Duration                                 : 1 h 37 min
Overall bit rate mode                    : Variable
Overall bit rate                         : 21.0 Mb/s
Movie name                               : Abominable 4K
Encoded date                             : UTC 2019-12-08 15:52:03
Writing application                      : mkvmerge v41.0.0 ('Smarra') 64-bit
Writing library                          : libebml v1.3.9 + libmatroska v1.5.2

Video
ID                                       : 1
Format                                   : HEVC
Format/Info                              : High Efficiency Video Coding
Commercial name                          : HDR10
Format profile¬† ¬† ¬† ¬† ¬† ¬† ¬† ¬† ¬† ¬† ¬† ¬† ¬† ¬†: Main [email protected]@High
Codec ID                                 : V_MPEGH/ISO/HEVC
Duration                                 : 1 h 37 min
Bit rate                                 : 15.9 Mb/s
Width                                    : 3 840 pixels
Height                                   : 2 072 pixels
Display aspect ratio                     : 1.85:1
Frame rate mode                          : Constant
Frame rate                               : 23.976 (24000/1001) FPS
Color space                              : YUV
Chroma subsampling                       : 4:2:0
Bit depth                                : 10 bits
Bits/(Pixel*Frame)                       : 0.083
Stream size                              : 10.8 GiB (76%)
Language                                 : English
Default                                  : Yes
Forced                                   : No
Color range                              : Limited
Color primaries                          : BT.2020
Transfer characteristics                 : PQ
Matrix coefficients                      : BT.2020 non-constant
Mastering display color primaries        : Display P3
Mastering display luminance              : min: 0.0050 cd/m2, max: 1000 cd/m2
Maximum Content Light Level              : 1003 cd/m2
Maximum Frame-Average Light Level        : 145 cd/m2

Audio #1
ID                                       : 2
Format                                   : MLP FBA 16-ch
Format/Info                              : Meridian Lossless Packing FBA with 16-channel presentation
Commercial name                          : Dolby TrueHD with Dolby Atmos
Codec ID                                 : A_TRUEHD
Duration                                 : 1 h 37 min
Bit rate mode                            : Variable
Bit rate                                 : 4 374 kb/s
Maximum bit rate                         : 7 389 kb/s
Channel(s)                               : 8 channels
Channel layout                           : L R C LFE Ls Rs Lb Rb
Sampling rate                            : 48.0 kHz
Frame rate                               : 1 200.000 FPS (40 SPF)
Compression mode                         : Lossless
Stream size                              : 2.97 GiB (21%)
Title                                    : TrueHD Atmos 7.1
Language                                 : English
Default                                  : Yes
Forced                                   : No
Number of dynamic objects                : 11
Bed channel count                        : 1 channel
Bed channel configuration                : LFE

Audio #2
ID                                       : 3
Format                                   : AC-3
Format/Info                              : Audio Coding 3
Commercial name                          : Dolby Digital
Codec ID                                 : A_AC3
Duration                                 : 1 h 37 min
Bit rate mode                            : Constant
Bit rate                                 : 448 kb/s
Channel(s)                               : 6 channels
Channel layout                           : L R C LFE Ls Rs
Sampling rate                            : 48.0 kHz
Frame rate                               : 31.250 FPS (1536 SPF)
Bit depth                                : 16 bits
Compression mode                         : Lossy
Stream size                              : 312 MiB (2%)
Title                                    : AC3 5.1
Language                                 : English
Service kind                             : Complete Main
Default                                  : No
Forced                                   : No

Audio #3
ID                                       : 4
Format                                   : AC-3
Format/Info                              : Audio Coding 3
Commercial name                          : Dolby Digital
Codec ID                                 : A_AC3
Duration                                 : 1 h 37 min
Bit rate mode                            : Constant
Bit rate                                 : 192 kb/s
Channel(s)                               : 2 channels
Channel layout                           : L R
Sampling rate                            : 48.0 kHz
Frame rate                               : 31.250 FPS (1536 SPF)
Bit depth                                : 16 bits
Compression mode                         : Lossy
Stream size                              : 134 MiB (1%)
Title                                    : Commentary by Jill Culton/Todd Wilderman/Suzanne Buirgy/Peilin Chou/John Hill/Max Boas/Mark Edwards
Language                                 : English
Service kind                             : Complete Main
Default                                  : No
Forced                                   : No

Text #1
ID                                       : 5
Format                                   : PGS
Muxing mode                              : zlib
Codec ID                                 : S_HDMV/PGS
Codec ID/Info                            : Picture based subtitle format used on BDs/HD-DVDs
Duration                                 : 1 h 35 min
Bit rate                                 : 38.1 kb/s
Count of elements                        : 3090
Stream size                              : 26.1 MiB (0%)
Title                                    : English (SDH)
Language                                 : English
Default                                  : No
Forced                                   : No

Text #2
ID                                       : 6
Format                                   : PGS
Muxing mode                              : zlib
Codec ID                                 : S_HDMV/PGS
Codec ID/Info                            : Picture based subtitle format used on BDs/HD-DVDs
Duration                                 : 1 h 35 min
Bit rate                                 : 24.8 kb/s
Count of elements                        : 1994
Stream size                              : 17.0 MiB (0%)
Title                                    : French
Language                                 : French
Default                                  : No
Forced                                   : No

Text #3
ID                                       : 7
Format                                   : PGS
Muxing mode                              : zlib
Codec ID                                 : S_HDMV/PGS
Codec ID/Info                            : Picture based subtitle format used on BDs/HD-DVDs
Duration                                 : 1 h 35 min
Bit rate                                 : 24.7 kb/s
Count of elements                        : 2156
Stream size                              : 16.9 MiB (0%)
Title                                    : Spanish (Latin American)
Language                                 : Spanish
Default                                  : No
Forced                                   : No

                     

[email protected]
Category:Movies > UltraHD/4K
Lang:English  English
Total Size:14.25 GB
Info Hash:fdd665e79eb59a9462e1efa485a8f283cf95fcb4
Added By:DDR
Date Added:09-12-2019 11:16:39

  

Files

File List: 
 File Size
0A DDR Release !!!.txt287.00 B
0Torrent downloaded from Desitorrents.tv.txt28.00 B
Abominable.2019.UHD.BluRay.2160p.HDR.TrueHD.Atmos.7.1.HEVC-DDR.mkv14.25 GB



Comments

<< Previous      Next >>
1 - 3

[Report] Posted: 10-12-2019 at 05:49:49
Rudeboy


Thank You. :D

[Report] Posted: 11-12-2019 at 10:46:12
haunting007


sir i want register desitorrent plz join me your websites thnku...
sam sir i know u r extratorrent.cc boss..

[Report] Posted: 12-12-2019 at 13:40:03
viski


pls upload in hindi audio
thanks

1 - 3
<< Previous      Next >>