Titans The Umbrella Academy S02E03 ddr Fatal Affair 2020 rq.mp4 yellowstone The Umbrella Academy S02E08 formula 1 The Blacklist s00e07 Perry Mason S01E07 Dont Look Deeper S01E01 Yellowstone S03E07 wwe The Old Guard 2020 The Alienist S02E05 Condor Die Hart S01E01 Relic 2020 The Gentlemen 2019 Scoob 2020 Palm Springs 2020 F1 Greyhound 2020 yts doom patrol  etrg Last Week Tonight The Umbrella Academy S02E05 The Silencing 2020 Xxx the umbrella academy the 100 wynonna earp Wynonna Earp S04E02 The Umbrella Academy S02E01 The Chi S03E07 The Umbrella Academy S02E04 Stargirl S01E12 Legacy of Lies 2020 The Umbrella Academy S02E07 Doom Patrol S02E08 The Outpost 2020 The Rental 2020 ettv the alienist Deep Blue Sea 3 2020 Black Is King 2020 Last Week Tonight with John Oliver S07E20 ufc The Umbrella Academy S02E02 Perry Mason etmovies Avengers Endgame 2019 Yellowstone S03E06 umbrella academy ethd The Secret Dare to Dream 2020 Unhinged 2020 0 Evo P-Valley S01E04 Archive 2020 2160p ITA Coma 2019 evo The Umbrella Academy S02E06 stargirl Blindspot hindi Peninsula 2020 formula 
Warning! Use a VPN When Downloading Torrents!
Your IP Address is 3.228.220.31. Location United States
Your Internet Provider can see when you download torrents! Hide your IP Address with a VPN
ETTV warns: You should use VPN to hide your torrenting. HIDE ME NOW
ETTV Recommended TV Shows
Helter.Skelter.S01E02.An.American.Myth.720p.AMZN.WEBRip.DDP5.1.x264-NTG[ettv] torrent
The.Deceived.S01E01.720p.WEB.H264-OATH[ettv] torrent
SUPERGIRL - Complete Season 5 S05 with CROSSOVER Episodes (2019-2020) - 720p AMZN Web-DL x264 torrent
BULL - Complete Season 4 S04 (2019-2020) - 720p AMZN Web-DL x264 torrent
WWE Monday Night Raw 2020 08 03 HDTV x264-NWCHD [TJET] torrent
American.Pickers.S21E21.WEB.h264-TRUMP[ettv] torrent

ETTV Recommended SD
Star.Light.2020.HDRip.XviD.AC3-EVO[EtMovies] torrent
Green.Rush.2020.HDRip.XviD.AC3-EVO[EtMovies] torrent
Around.The.Sun.2020.HDRip.XviD.AC3-EVO[EtMovies] torrent
April.In.Autumn.2018.HDRip.XviD.AC3-EVO[EtMovies] torrent

ETTV Recommended HD
Star.Light.2020.1080p.WEB-DL.H264.AC3-EVO[EtHD] torrent
Green.Rush.2020.1080p.AMZN.WEB-DL.DDP5.1.H.264-EVO[EtHD] torrent
Around.the.Sun.2019.1080p.WEB-DL.AAC.H264-CMRG[EtHD] torrent
April.In.Autumn.2018.1080p.WEB-DL.H264.AC3-EVO[EtHD] torrent

ETTV Recommended UHD
Animal World 2018.2160p.HDR.WEBRip.DDP.5.1.HEVC-DDR.mkv torrent
Beautiful.Boy.2018.HDR.2160p.WebRip.DDP.5.1.HEVC-DDR.mkv torrent
First.They.Killed.My.Father.2017.2160p.WEBRip.HDR.DD5.1.HEVC-DDR.mkv torrent
Flash.Gordon.1980.HDR.2160p.WEBRip.DD.5.1.HEVC-DDR.mkv torrent
High.Life.2018.HDR.2160p.WebRip.DDP.5.1.HEVC-DDR.mkv torrent
Horse.Girl.2020.HDR.2160p.WEBRip.DDP.5.1.HEVC-DDR.mkv torrent

ETTV Recommended Cam
The Hunt 2020 HDCAM x264 AC3-ETRG torrent
The Burnt Orange Heresy 2020 720p HDCAM-C1NEM4 torrent

ETTV Recommended Foreign
La.Fin.du.Jour.1939.(Julien.Duvivier-Drama).1080p.BRRip.x264-Classics torrent
Sisters.Of.The.Trees.2019.2160p.MUBI.WEB-DL.AAC.2.0.H.264-Telly torrent
Doctor Dolittle - Il favoloso dottor Dolittle (1967) AC3 2.0 ITA.ENG 1080p H265 sub ita.eng Sp33dy94 MIRCrew torrent
The Demented - Zeta Virus (2013).1080p.H264.ita.eng.Ac3-5.1.sub.ita.eng-MIRCrew torrent
Young Ones-L.ultima generazione (2014) ITA-ENG Ac3 5.1 BDRip 1080p H264 [ArMor] torrent
Bandish.Bandits.S01.2020.1080p.AMZN.WEB-DL.DDP.5.1.H.264-Telly torrent

ETTV Recommended Music
Eagles - Complete Greatest Hits 2003 [EAC - FLAC] (oan) torrent
Luther Vandross - One Night With You - The Best Of Love - [FLAC]-[TFM] torrent
Dr. Hook -Live In The U.K - 1981 - 320kbps - G&U torrent
100 Tracks Best of Bee Gees Songs Playlist Spotify Mp3~ [320]  kbps Beats⭐ torrent
[chamber pop, indie-rock] (2020) Wye Oak - No Horizon (EP) [FLAC] [DarkAngie] torrent
VA - Soul The Collection [3CD] (2020) Mp3 320kbps [PMEDIA] ⭐️ torrent


Download Torrent "Turtle.Odyssey.2018.MULTi.UHD.Bluray.2160p.HDR.DTS-HDMA.5.1.HEVC-DDR"

IMDB Details
Description:

N/A

Genre:

Documentary

Download Torrent (Magnet)
Download Torrent (File)

Seeds: 82
Leechers: 70

Uploaded by:
DDR


Category:
Movies > UltraHD/4K


Details
Title:Turtle.Odyssey.2018.MULTi.UHD.Bluray.2160p.HDR.DTS-HDMA.5.1.HEVC-DDR
Description:




SPECS
Format                                   : Matroska
Format version                           : Version 4
File size                                : 7.41 GiB
Duration                                 : 41 min 9 s
Overall bit rate mode                    : Variable
Overall bit rate                         : 25.8 Mb/s
Movie name                               : Turtle Odyssey
Encoded date                             : UTC 2019-12-08 14:11:50
Writing application                      : mkvmerge v41.0.0 ('Smarra') 64-bit
Writing library                          : libebml v1.3.9 + libmatroska v1.5.2
Cover                                    : Yes
Attachments                              : cover.jpg

Video
ID                                       : 1
Format                                   : HEVC
Format/Info                              : High Efficiency Video Coding
Commercial name                          : HDR10
Format profile                           : Main [email protected]@High
Codec ID                                 : V_MPEGH/ISO/HEVC
Duration                                 : 41 min 9 s
Bit rate                                 : 15.1 Mb/s
Width                                    : 3 840 pixels
Height                                   : 2 160 pixels
Display aspect ratio                     : 16:9
Frame rate mode                          : Constant
Frame rate                               : 23.976 (24000/1001) FPS
Color space                              : YUV
Chroma subsampling                       : 4:2:0
Bit depth                                : 10 bits
Bits/(Pixel*Frame)                       : 0.076
Stream size                              : 4.35 GiB (59%)
Language                                 : English
Default                                  : Yes
Forced                                   : No
Color range                              : Limited
Color primaries                          : BT.2020
Transfer characteristics                 : PQ
Matrix coefficients                      : BT.2020 non-constant
Mastering display color primaries        : BT.2020
Mastering display luminance              : min: 0.0001 cd/m2, max: 1000 cd/m2
Maximum Content Light Level              : 996 cd/m2
Maximum Frame-Average Light Level        : 401 cd/m2

Audio #1
ID                                       : 2
Format                                   : DTS XLL
Format/Info                              : Digital Theater Systems
Commercial name                          : DTS-HD Master Audio
Codec ID                                 : A_DTS
Duration                                 : 41 min 9 s
Bit rate mode                            : Variable
Bit rate                                 : 7 615 kb/s
Channel(s)                               : 8 channels
Channel layout                           : C L R LFE Lb Rb Lss Rss
Sampling rate                            : 48.0 kHz
Frame rate                               : 93.750 FPS (512 SPF)
Bit depth                                : 24 bits
Compression mode                         : Lossless
Stream size                              : 2.19 GiB (30%)
Language                                 : English
Default                                  : Yes
Forced                                   : No

Audio #2
ID                                       : 3
Format                                   : DTS
Format/Info                              : Digital Theater Systems
Codec ID                                 : A_DTS
Duration                                 : 41 min 8 s
Bit rate mode                            : Constant
Bit rate                                 : 1 509 kb/s
Channel(s)                               : 6 channels
Channel layout                           : C L R Ls Rs LFE
Sampling rate                            : 48.0 kHz
Frame rate                               : 93.750 FPS (512 SPF)
Bit depth                                : 24 bits
Compression mode                         : Lossy
Stream size                              : 444 MiB (6%)
Language                                 : French
Default                                  : No
Forced                                   : No

Audio #3
ID                                       : 4
Format                                   : DTS
Format/Info                              : Digital Theater Systems
Codec ID                                 : A_DTS
Duration                                 : 41 min 8 s
Bit rate mode                            : Constant
Bit rate                                 : 1 509 kb/s
Channel(s)                               : 6 channels
Channel layout                           : C L R Ls Rs LFE
Sampling rate                            : 48.0 kHz
Frame rate                               : 93.750 FPS (512 SPF)
Bit depth                                : 24 bits
Compression mode                         : Lossy
Stream size                              : 444 MiB (6%)
Language                                 : Spanish
Default                                  : No
Forced                                   : No

Text
ID                                       : 5
Format                                   : PGS
Muxing mode                              : zlib
Codec ID                                 : S_HDMV/PGS
Codec ID/Info                            : Picture based subtitle format used on BDs/HD-DVDs
Duration                                 : 39 min 25 s
Bit rate                                 : 32.0 kb/s
Count of elements                        : 790
Stream size                              : 9.02 MiB (0%)
Language                                 : English
Default                                  : Yes
Forced                                   : No

                     

[email protected]
Category:Movies > UltraHD/4K
Lang:English  English
Total Size:7.41 GB
Info Hash:b1c77563c71724bf2b2cda7cd02dbf207984de09
Added By:DDR
Date Added:08-12-2019 16:20:31

  

Files

File List: 
 File Size
0A DDR Release !!!.txt287.00 B
0Torrent downloaded from Desitorrents.tv.txt28.00 B
Turtle.Odyssey.2018.MULTi.UHD.Bluray.2160p.HDR.DTS-HDMA.5.1.HEVC-DDR.mkv7.41 GB



Comments

There are currently no comments. Be the first one to write something !