Titans The Umbrella Academy S02E03 ddr Fatal Affair 2020 rq.mp4 yellowstone The Umbrella Academy S02E08 formula 1 The Blacklist s00e07 Perry Mason S01E07 Dont Look Deeper S01E01 Yellowstone S03E07 wwe The Old Guard 2020 The Alienist S02E05 Condor Die Hart S01E01 Relic 2020 The Gentlemen 2019 Scoob 2020 Palm Springs 2020 F1 Greyhound 2020 yts doom patrol  etrg Last Week Tonight The Umbrella Academy S02E05 The Silencing 2020 Xxx the umbrella academy the 100 wynonna earp Wynonna Earp S04E02 The Umbrella Academy S02E01 The Chi S03E07 The Umbrella Academy S02E04 Stargirl S01E12 Legacy of Lies 2020 The Umbrella Academy S02E07 Doom Patrol S02E08 The Outpost 2020 The Rental 2020 ettv the alienist Deep Blue Sea 3 2020 Black Is King 2020 Last Week Tonight with John Oliver S07E20 ufc The Umbrella Academy S02E02 Perry Mason etmovies Avengers Endgame 2019 Yellowstone S03E06 umbrella academy ethd The Secret Dare to Dream 2020 Unhinged 2020 0 Evo P-Valley S01E04 Archive 2020 2160p ITA Coma 2019 evo The Umbrella Academy S02E06 stargirl Blindspot hindi Peninsula 2020 formula 
Warning! Use a VPN When Downloading Torrents!
Your IP Address is 3.228.220.31. Location United States
Your Internet Provider can see when you download torrents! Hide your IP Address with a VPN
ETTV warns: You should use VPN to hide your torrenting. HIDE ME NOW
ETTV Recommended TV Shows
Stargirl.S01E12.720p.WEB.H264-BTX[ettv] torrent
60.Minutes.S52E44.WEB.h264-SNiPER[ettv] torrent
Helter.Skelter.S01E02.An.American.Myth.720p.AMZN.WEBRip.DDP5.1.x264-NTG[ettv] torrent
The.Deceived.S01E01.720p.WEB.H264-OATH[ettv] torrent
SUPERGIRL - Complete Season 5 S05 with CROSSOVER Episodes (2019-2020) - 720p AMZN Web-DL x264 torrent
BULL - Complete Season 4 S04 (2019-2020) - 720p AMZN Web-DL x264 torrent

ETTV Recommended SD
Star.Light.2020.HDRip.XviD.AC3-EVO[EtMovies] torrent
Green.Rush.2020.HDRip.XviD.AC3-EVO[EtMovies] torrent
Around.The.Sun.2020.HDRip.XviD.AC3-EVO[EtMovies] torrent
April.In.Autumn.2018.HDRip.XviD.AC3-EVO[EtMovies] torrent

ETTV Recommended HD
Star.Light.2020.1080p.WEB-DL.H264.AC3-EVO[EtHD] torrent
Green.Rush.2020.1080p.AMZN.WEB-DL.DDP5.1.H.264-EVO[EtHD] torrent
Around.the.Sun.2019.1080p.WEB-DL.AAC.H264-CMRG[EtHD] torrent
April.In.Autumn.2018.1080p.WEB-DL.H264.AC3-EVO[EtHD] torrent

ETTV Recommended UHD
Animal World 2018.2160p.HDR.WEBRip.DDP.5.1.HEVC-DDR.mkv torrent
Beautiful.Boy.2018.HDR.2160p.WebRip.DDP.5.1.HEVC-DDR.mkv torrent
First.They.Killed.My.Father.2017.2160p.WEBRip.HDR.DD5.1.HEVC-DDR.mkv torrent
Flash.Gordon.1980.HDR.2160p.WEBRip.DD.5.1.HEVC-DDR.mkv torrent
High.Life.2018.HDR.2160p.WebRip.DDP.5.1.HEVC-DDR.mkv torrent
Horse.Girl.2020.HDR.2160p.WEBRip.DDP.5.1.HEVC-DDR.mkv torrent

ETTV Recommended Cam
The Hunt 2020 HDCAM x264 AC3-ETRG torrent
The Burnt Orange Heresy 2020 720p HDCAM-C1NEM4 torrent

ETTV Recommended Foreign
La.Fin.du.Jour.1939.(Julien.Duvivier-Drama).1080p.BRRip.x264-Classics torrent
Sisters.Of.The.Trees.2019.2160p.MUBI.WEB-DL.AAC.2.0.H.264-Telly torrent
Doctor Dolittle - Il favoloso dottor Dolittle (1967) AC3 2.0 ITA.ENG 1080p H265 sub ita.eng Sp33dy94 MIRCrew torrent
The Demented - Zeta Virus (2013).1080p.H264.ita.eng.Ac3-5.1.sub.ita.eng-MIRCrew torrent
Young Ones-L.ultima generazione (2014) ITA-ENG Ac3 5.1 BDRip 1080p H264 [ArMor] torrent
Bandish.Bandits.S01.2020.1080p.AMZN.WEB-DL.DDP.5.1.H.264-Telly torrent

ETTV Recommended Music
Eagles - Complete Greatest Hits 2003 [EAC - FLAC] (oan) torrent
Luther Vandross - One Night With You - The Best Of Love - [FLAC]-[TFM] torrent
Dr. Hook -Live In The U.K - 1981 - 320kbps - G&U torrent
100 Tracks Best of Bee Gees Songs Playlist Spotify Mp3~ [320]  kbps Beats⭐ torrent
[chamber pop, indie-rock] (2020) Wye Oak - No Horizon (EP) [FLAC] [DarkAngie] torrent
VA - Soul The Collection [3CD] (2020) Mp3 320kbps [PMEDIA] ⭐️ torrent


Download Torrent "The Spy Who Dumped Me 2018 x264 720p Esub BluRay Dual Audio English Hindi G..."

IMDB Details
Description:

Audrey and Morgan are best friends who unwittingly become entangled in an international conspiracy when one of the women discovers the boyfriend who dumped her was actually a spy.

Genre:

Action, Adventure, Comedy

Download Torrent (Magnet)
Download Torrent (File)

Seeds: 438
Leechers: 312

Uploaded by:
GOPISAHI


Category:
Movies > Dubs/Dual Audio


Details
Title:The Spy Who Dumped Me 2018 x264 720p Esub BluRay Dual Audio English Hindi G...
Description:
https://www.gopisahi.in/



The Spy Who Dumped Me 2018 x264 720p Esub BluRay Dual Audio English Hindi GOPISAHI

Format                         : Matroska
Format version                 : Version 4
File size                      : 922 MiB
Duration                       : 1 h 56 min
Overall bit rate               : 1 103 kb/s
Movie name                     : The Spy Who Dumped Me 2018 GOPISAHI

Format                         : AVC
Format/Info                    : Advanced Video Codec
Format profile                 : [email protected]
Format settings                : CABAC / 12 Ref Frames
Format settings, CABAC         : Yes
Format settings, Reference fra : 12 frames
Codec ID                       : V_MPEG4/ISO/AVC
Duration                       : 1 h 56 min
Bit rate                       : 899 kb/s
Width                          : 1 280 pixels
Height                         : 536 pixels
Display aspect ratio           : 2.40:1
Frame rate mode                : Constant
Frame rate                     : 23.976 (24000/1001) FPS
Color space                    : YUV
Chroma subsampling             : 4:2:0
Bit depth                      : 8 bits
Scan type                      : Progressive
Bits/(Pixel*Frame)             : 0.055
Stream size                    : 750 MiB (81%)
Title                          : GOPISAHI
Writing library                : x264 core 157 r2935 545de2f

Audio #1
Format                         : AAC LC
Format/Info                    : Advanced Audio Codec Low Complexity
Codec ID                       : A_AAC-2
Duration                       : 1 h 56 min
Bit rate                       : 96.0 kb/s
Channel(s)                     : 2 channels
Channel layout                 : L R
Sampling rate                  : 48.0 kHz
Frame rate                     : 46.875 FPS (1024 SPF)
Compression mode               : Lossy
Delay relative to video        : -7 ms
Stream size                    : 80.6 MiB (9%)
Title                          : GOPISAHI
Language                       : Hindi

Audio #2
Format                         : AAC LC
Duration                       : 1 h 56 min
Bit rate                       : 96.0 kb/s
Channel(s)                     : 2 channels
Channel layout                 : L R
Sampling rate                  : 48.0 kHz
Frame rate                     : 46.875 FPS (1024 SPF)
Compression mode               : Lossy
Delay relative to video        : -12 ms
Stream size                    : 80.7 MiB (9%)
Title                          : GOPISAHI
Language                       : English

Text
Language                       : English






Category:Movies > Dubs/Dual Audio
Lang:Hindi  Hindi
Total Size:922 MB
Info Hash:598791c06a72582c97f60970ce0457bc768823a7
Added By:GOPISAHI
Date Added:05-12-2019 14:26:06

  

Files

File List: 
 File Size
The Spy Who Dumped Me 2018 x264 720p Esub BluRay Dual Audio English Hindi GOPISAHI.mkv922 MB



Comments

There are currently no comments. Be the first one to write something !