Birds of Prey (and the Fantabulous Emancipation of One Harley Quinn) 2020 Marvels Agents of S H I E L D S07E01 XXX supergirl Jeffrey Epstein Filthy Rich s01e01 The Lovebirds 2020 What We Do in the Shadows S02E08 mrs america etrg Billions grant aew Marvels Agents of S.H.I.E.L.D. S07E01 Bad Boys for Life 2020 evo Billions S05E04 defending jacob rick and morty yts love life Stargirl s01e02 transplant agents ethd The Wrong Missy 2020 Survive the Night 2020 Rick and Morty S04E09 Raktanchal Barkskins s01e01 Capone 2020 Blindspot Snowpiercer S01E02 killing eve DDR Grant S01E02 nascar legends of tomorrow what we do in the shadows hindi 2160p Killing Eve S03E07 Scoob! 2020 rq.mp4 the walking dead agents of shield outlander ettv Brazzers Best Of Brazzers etmovies snowpiercer WWE  The Real Housewives of Beverly Hills S10E07 Americas Got Talent S15E01 The 100 S07E02 Locke  the flash Inheritance 2020 ddr stargirl American dad Grant S01E01 marvel week hindi 2020 See.S01E04.WEB.x264-PHOENiX[TGx] the 100 DCs Legends of Tomorrow S05E14 0 the good fight DC week 
Warning! Use a VPN When Downloading Torrents!
Your IP Address is 34.204.176.125. Location United States
Your Internet Provider can see when you download torrents! Hide your IP Address with a VPN
ETTV warns: You should use VPN to hide your torrenting. HIDE ME NOW
ETTV Recommended TV Shows
The.Good.Fight.S04E07.720p.WEB.H265.ETRG torrent
Man.With.a.Plan.S04E11.HDTV.x264-SVA[ettv] torrent
Council.of.Dads.S01E05.HDTV.x264-SVA[ettv] torrent
Siren.2018.S03E10.WEB.H264-BTX[ettv] torrent
In.the.Dark.2019.S02E07.HDTV.x264-SVA.ETRG torrent
Blindspot.S05E03.HDTV.x264-SVA.ETRG torrent

ETTV Recommended SD
Guest.Of.Honour.2020.HC.HDRip.XviD.AC3-EVO torrent
I.See.You.2019.BRRip.XviD.AC3-EVO torrent
100.Percent.Wolf.2020.HDRip.XviD.AC3-EVO torrent
Murder.Manual.2020.HDRip.XviD.AC3-EVO torrent

ETTV Recommended HD
Murder.Manual.1080p.AMZN.WEB-DL.DDP2.0.H.264-CMRG[EtHD] torrent
7500.2020.1080p.WEB-DL.H264.AC3-EVO[EtHD] torrent
The.High.Note.2020.1080p.WEB-DL.H264.AC3-EVO[EtHD] torrent
The.Vast.Of.Night.2020.1080p.AMZN.WEB-DL.H264.DDP.5.1-EVO[EtHD] torrent

ETTV Recommended UHD
The.Wrong.Missy.2020.UHD.MULTI.2160p.HDR.WEBRip.DDP.5.1.HEVC-DDR[EtHD] torrent
Queen & Slim (2019) [BluRay Rip 2160p HEVC 10bit-HDR ITA-ENG DTS-AC3-SUBS] [M@HD] torrent
1917.2019.HDR10Plus.2160p.UHD.BluRay.x265.iNTERNAL-JustWatch.ETRG torrent
Dolittle.2020.HDR10Plus.2160p.UHD.BluRay.x265.iNTERNAL-JustWatch.ETRG torrent

ETTV Recommended Cam
The Hunt 2020 HDCAM x264 AC3-ETRG torrent
The Burnt Orange Heresy 2020 720p HDCAM-C1NEM4 torrent

ETTV Recommended Foreign
After(2019) HDRip 720p [Hindi-Dub] Dual-Audio x264 - 1XCinema torrent
Door.Ke.Darshan.2020.1080p.S.M.WEB-DL.AAC.2.0.H.264-Telly torrent
Ponmagal.Vandhal.2020.1080p.AMZN.WEB-DL.DD+5.1.x265-Telly torrent
Allagash (2020) HDRip 720p [Hindi-Dub] Dual-Audio x264 - 1XCinema torrent

Sponsored


Download Torrent "Game of Thrones (2011) Season 08 S08 (1080p BluRay x265 HEVC 10bit TrueHD 7..."

IMDB Details
Description:

Nine noble families fight for control over the mythical lands of Westeros, while an ancient enemy returns after being dormant for thousands of years.

Genre:

Action, Adventure, Drama, Fantasy, Romance

Download Torrent (Magnet)
Download Torrent (File)
Seeds: 46
Leechers: 13
Completed: 4,613 
Last Checked: 20-11-2019 06:36:30


Details
Title:Game of Thrones (2011) Season 08 S08 (1080p BluRay x265 HEVC 10bit TrueHD 7...
Description:




Media Information

General
Format                                   : Matroska
Format version                           : Version 4 / Version 2
File size                                : 3.34 GiB
Duration                                 : 53 min 7 s
Overall bit rate mode                    : Variable
Overall bit rate                         : 9 009 kb/s
Encoded date                             : UTC 2019-11-18 23:51:54
Writing application                      : mkvmerge v36.0.0 ('Is That Jazz?') 64-bit
Writing library                          : libebml v1.3.9 + libmatroska v1.5.2

Video
ID                                       : 1
Format                                   : HEVC
Format/Info                              : High Efficiency Video Coding
Format profile                           : Main [email protected]@Main
Codec ID                                 : V_MPEGH/ISO/HEVC
Duration                                 : 53 min 7 s
Bit rate                                 : 5 375 kb/s
Width                                    : 1 920 pixels
Height                                   : 1 080 pixels
Display aspect ratio                     : 16:9
Frame rate mode                          : Constant
Frame rate                               : 23.976 (24000/1001) FPS
Color space                              : YUV
Chroma subsampling                       : 4:2:0
Bit depth                                : 10 bits
Bits/(Pixel*Frame)                       : 0.108
Stream size                              : 1.99 GiB (60%)
Writing library                          : x265 3.2+9-971180b100f8:[Windows][GCC 9.2.1][64 bit] 10bit
Encoding settings                        : cpuid=1111039 / frame-threads=4 / numa-pools=16 / wpp / no-pmode / no-pme / no-psnr / no-ssim / log-level=2 / input-csp=1 / input-res=1920x1080 / interlace=0 / total-frames=76433 / level-idc=0 / high-tier=1 / uhd-bd=0 / ref=4 / no-allow-non-conformance / no-repeat-headers / annexb / no-aud / no-hrd / info / hash=0 / no-temporal-layers / open-gop / min-keyint=23 / keyint=250 / gop-lookahead=0 / bframes=8 / b-adapt=2 / b-pyramid / bframe-bias=0 / rc-lookahead=80 / lookahead-slices=0 / scenecut=40 / radl=0 / no-splice / no-intra-refresh / ctu=64 / min-cu-size=8 / no-rect / no-amp / max-tu-size=32 / tu-inter-depth=1 / tu-intra-depth=1 / limit-tu=0 / rdoq-level=2 / dynamic-rd=0.00 / no-ssim-rd / signhide / no-tskip / nr-intra=0 / nr-inter=0 / no-constrained-intra / no-strong-intra-smoothing / max-merge=3 / limit-refs=3 / limit-modes / me=3 / subme=3 / merange=57 / temporal-mvp / no-frame-dup / no-hme / weightp / no-weightb / no-analyze-src-pics / deblock=-1:-1 / sao / no-sao-non-deblock / rd=4 / selective-sao=4 / no-early-skip / no-rskip / no-fast-intra / no-tskip-fast / no-cu-lossless / b-intra / no-splitrd-skip / rdpenalty=0 / psy-rd=1.50 / psy-rdoq=5.00 / no-rd-refine / no-lossless / cbqpoffs=0 / crqpoffs=0 / rc=crf / crf=17.5 / qcomp=0.60 / qpstep=4 / stats-write=0 / stats-read=0 / ipratio=1.40 / pbratio=1.30 / aq-mode=3 / aq-strength=0.80 / cutree / zone-count=0 / no-strict-cbr / qg-size=32 / no-rc-grain / qpmax=69 / qpmin=0 / no-const-vbv / sar=0 / overscan=0 / videoformat=5 / range=0 / colorprim=2 / transfer=2 / colormatrix=2 / chromaloc=0 / display-window=0 / cll=0,0 / min-luma=0 / max-luma=1023 / log2-max-poc-lsb=8 / vui-timing-info / vui-hrd-info / slices=1 / no-opt-qp-pps / no-opt-ref-list-length-pps / no-multi-pass-opt-rps / scenecut-bias=0.05 / no-opt-cu-delta-qp / no-aq-motion / no-hdr / no-hdr-opt / no-dhdr10-opt / no-idr-recovery-sei / analysis-reuse-level=5 / scale-factor=0 / refine-intra=0 / refine-inter=0 / refine-mv=1 / refine-ctu-distortion=0 / no-limit-sao / ctu-info=0 / no-lowpass-dct / refine-analysis-type=0 / copy-pic=1 / max-ausize-factor=1.0 / no-dynamic-refine / no-single-sei / no-hevc-aq / no-svt / no-field / qp-adaptation-range=1.00
Language                                 : English
Default                                  : Yes
Forced                                   : No

Audio
ID                                       : 2
Format                                   : Atmos / TrueHD
Codec ID                                 : A_TRUEHD
Duration                                 : 53 min 7 s
Bit rate mode                            : Variable
Bit rate                                 : 3 565 kb/s
Maximum bit rate                         : 6 144 kb/s
Channel(s)                               : Object Based / 8 channels
Channel positions                        : Object Based / Front: L C R, Side: L R, Back: L R, LFE
Sampling rate                            :  / 48.0 kHz
Frame rate                               : 1 200.000 FPS (40 spf)
Compression mode                         : Lossless
Stream size                              : 1.32 GiB (40%)
Title                                    : True-HD 7.1
Language                                 : English
Default                                  : No
Forced                                   : No

Subtitle
ID                                       : 3
Format                                   : PGS
Muxing mode                              : zlib
Codec ID                                 : S_HDMV/PGS
Codec ID/Info                            : Picture based subtitle format used on BDs/HD-DVDs
Duration                                 : 3 s 337 ms
Bit rate                                 : 90.7 kb/s
Count of elements                        : 4
Stream size                              : 36.9 KiB (0%)
Language                                 : English
Default                                  : Yes
Forced                                   : Yes

Menu
00:00:00.000                             : en:Chapter 01
00:01:55.949                             : en:Chapter 02
00:10:57.031                             : en:Chapter 03
00:18:02.956                             : en:Chapter 04
00:25:09.174                             : en:Chapter 05
00:34:44.874                             : en:Chapter 06
00:42:35.636                             : en:Chapter 07
00:51:48.730                             : en:Chapter 08

Source Information
Release: Game of Thrones S08 REPACK BluRay 1080p TrueHD Atmos 7.1 AVC REMUX-JATO 80.5GB



Category:TV > HEVC/x265
Lang:English  English
Total Size:26.21 GB
Info Hash:6ba18df1e6a35852dae7c20e22c4eb1bb9623abd
Added By:UTR
Date Added:20-11-2019 06:36:23

Files

File List: 
 File Size
Game of Thrones S08E01 Winterfell.1080p.BluRay.x265.10bit.TrueHD.7.1-Balerion[UTR].mkv3.35 GB
Game of Thrones S08E02 A Knight of the Seven Kingdoms.1080p.BluRay.x265.10bit.TrueHD.7.1-Balerion[UTR].mkv3.36 GB
Game of Thrones S08E03 The Long Night.1080p.BluRay.x265.10bit.TrueHD.7.1-Balerion[UTR].mkv4.92 GB
Game of Thrones S08E04 The Last of the Starks.1080p.BluRay.x265.10bit.TrueHD.7.1-Balerion[UTR].mkv4.41 GB
Game of Thrones S08E05 The Bells.1080p.BluRay.x265.10bit.TrueHD.7.1-Balerion[UTR].mkv5.39 GB
Game of Thrones S08E06 The Iron Throne.1080p.BluRay.x265.10bit.TrueHD.7.1-Balerion[UTR].mkv4.77 GB



Comments

There are currently no comments. Be the first one to write something !