the 100 ethd Sonic the Hedgehog 2020 rick and morty s04e09 evo ettv 2160p betaal Scoob! 2020 batwoman the flash The Hunt 2020 insecure The Gentlemen 2020 Birds of Prey (and the Fantabulous Emancipation of One Harley Quinn) 2020 supergirl Extraction 2020 The Blackout hindi hightown Outlander  0 run Snowpiercer S01E02 The Lovebirds 2020 seal team  AEW rick and morty s04e08 legends of tomorrow westworld star wars the rise of skywalker 2019 BILLIONS Hightown S01E02 rq.mp4 etmovies EtHD ddr Stargirl S01E01 The Invisible Man 2020 penny dreadful defending jacob Survive the Night 2020 Good Witch S06E04 Rick and Morty stargirl wwe stargirl s01e02 Penny Dreadful City of Angels S01E05 what we do in the shadows Killing Eve S03E07 Defending Jacob S01E07 Capone 2020 ufc Modern Love s01e07 Live PD s04e65 Billions S05E04 Killing Eve yts Locke  Bloodshot 2020 Harley Quinn Xxx Bad Boys for Life 2020 etrg snowpiercer Blindspot Inheritance 2020 90 Day Fiance Before The 90 Days S04E14 The Wrong Missy 2020 
Warning! Use a VPN When Downloading Torrents!
Your IP Address is 3.235.172.213. Location United States
Your Internet Provider can see when you download torrents! Hide your IP Address with a VPN
ETTV warns: You should use VPN to hide your torrenting. HIDE ME NOW
ETTV Recommended TV Shows
American.Dad.S16E07.HDTV.x264-KILLERS[ettv] torrent
Almost.Paradise.S01E09.HDTV.x264-KILLERS[ettv] torrent
The.Baker.and.the.Beauty.US.S01E07.HDTV.x264-KILLERS[ettv] torrent
WWE RAW 25th May 2020 HDTV x264-TJ [TJET] torrent

ETTV Recommended HD
Adventures.Of.Rufus.The.Fantastic.Pet.2020.1080p.WEB-DL.H264.AC3-EVO[EtHD] torrent
The.Last.Beyond.2019.1080p.WEB-DL.H264.AC3-EVO[EtHD] torrent
Straight.Up.2020.1080p.WEB-DL.H264.AC3-EVO[EtHD] torrent
I.Will.Make.You.Mine.2020.1080p.WEB-DL.H264.AC3-EVO[EtHD] torrent

ETTV Recommended UHD
2001.A.Space.Odyssey.1968.BDRip.2160p.UHD.HDR.Eng.DTS-HD.MA.ETRG torrent
War.of.the.Worlds.2005.4K.HDR.2160p.BDRip Ita Eng x265-NAHOM torrent
The Blues Brothers 1980.MULTi.UHD.BluRay.2160p.HDR.HEVC.DTS-X.7.1-DDR.mkv torrent
Blade.Runner.1982.The.Final.Cut.BDRip.2160p.UHD.HDR.Eng.TrueHD.ETRG torrent

ETTV Recommended Cam
The Hunt 2020 HDCAM x264 AC3-ETRG torrent
The Burnt Orange Heresy 2020 720p HDCAM-C1NEM4 torrent

ETTV Recommended Foreign
Betaal.S01.2020.UHD.2160p.HDR.WEB-Rip.Atmos.5.1.HEVC-DDR torrent
The.Decline.2020.French.UHD.2160p.HDR.WEBRiP.DDP.5.1.HEVC-DDR[EtHD] torrent
Naukar.Vahuti.Da.2019.720p.AMZN.WEB-DL.DD+5.1.x264-Telly torrent
Rishtey 2002 Hindi 720p AMZN WEBRip x264 AAC 5.1 ESubs - LOKiHD - Telly torrent

Sponsored


Download Torrent "The Dead Don't Die (2019)Mp-4 X264 1080p AAC[DSD]"

IMDB Details
Description:

N/A

Genre:

N/A

Download Torrent (Magnet)
Download Torrent (File)
Seeds: 182
Leechers: 33
Completed: 2,013 
Last Checked: 09-11-2019 02:01:18


Details
Title:The Dead Don't Die (2019)Mp-4 X264 1080p AAC[DSD]
Description:
Seedboxed!!





General

Complete name                            : The Dead Don't Die.theatrical.mp4

Format                                   : MPEG-4

Format profile                           : Base Media / Version 2

Codec ID                                 : mp42 (mp42/isom/avc1)

File size                                : 1 014 MiB

Duration                                 : 1 h 44 min

Overall bit rate mode                    : Variable

Overall bit rate                         : 1 357 kb/s

Movie name                               : The Dead Don't Die.theatrical

Performer                                : Jim Jarmusch

Performer/Sorted by                      : Jim Jarmusch

Genre                                    : Comedy & Horror & Fantasy

Description                              : In a small peaceful town, zombies suddenly rise to terrorize the town. Now three bespectacled police officers and a strange Scottish morgue expert must band together to defeat the undead.

Encoded date                             : UTC 2019-11-08 22:50:11

Tagged date                              : UTC 2019-11-08 23:54:06

Writing application                      : DVDFab 11.0.5.7

Cover                                    : Yes

Title/Sort                               : The Dead Don't Die

LongDescription                          : In a small peaceful town, zombies suddenly rise to terrorize the town. Now three bespectacled police officers and a strange Scottish morgue expert must band together to defeat the undead.


Video

ID                                       : 1

Format                                   : AVC

Format/Info                              : Advanced Video Codec

Format profile                           : [email protected]

Format settings                          : CABAC / 2 Ref Frames

Format settings, CABAC                   : Yes

Format settings, RefFrames               : 2 frames

Format settings, GOP                     : M=1, N=24

Codec ID                                 : avc1

Codec ID/Info                            : Advanced Video Coding

Duration                                 : 1 h 44 min

Bit rate mode                            : Variable

Bit rate                                 : 1 159 kb/s

Maximum bit rate                         : 1 791 kb/s

Width                                    : 720 pixels

Height                                   : 404 pixels

Display aspect ratio                     : 16:9

Frame rate mode                          : Constant

Frame rate                               : 23.976 (24000/1001) FPS

Color space                              : YUV

Chroma subsampling                       : 4:2:0

Bit depth                                : 8 bits

Scan type                                : Progressive

Bits/(Pixel*Frame)                       : 0.166

Stream size                              : 866 MiB (85%)

Encoded date                             : UTC 2019-11-08 22:50:11

Tagged date                              : UTC 2019-11-08 23:54:06

Color primaries                          : BT.601 NTSC

Transfer characteristics                 : BT.709

Matrix coefficients                      : BT.601

Menus                                    : 4


Audio

ID                                       : 2

Format                                   : AAC

Format/Info                              : Advanced Audio Codec

Format profile                           : LC

Codec ID                                 : mp4a-40-2

Duration                                 : 1 h 44 min

Bit rate mode                            : Variable

Bit rate                                 : 192 kb/s

Maximum bit rate                         : 194 kb/s

Channel(s)                               : 2 channels

Channel positions                        : Front: L R

Sampling rate                            : 48.0 kHz

Frame rate                               : 46.875 FPS (1024 SPF)

Compression mode                         : Lossy

Stream size                              : 143 MiB (14%)

Title                                    : English (aac 2.0)

Language                                 : English

Default                                  : Yes

Alternate group                          : 1

Encoded date                             : UTC 2019-11-08 22:50:11

Tagged date                              : UTC 2019-11-08 23:54:06


Text

ID                                       : 3

Format                                   : VobSub

Codec ID                                 : mp4s-E0

Codec ID/Info                            : The same subtitle format used on DVDs

Duration                                 : 1 h 42 min

Bit rate mode                            : Variable

Bit rate                                 : 2 091 b/s

Maximum bit rate                         : 4 249 Mb/s

Stream size                              : 1.54 MiB (0%)

Language                                 : English

Default                                  : Yes

Forced                                   : No

Alternate group                          : 2

Encoded date                             : UTC 2019-11-08 22:50:11


Tagged date                              : UTC 2019-11-08 23:52:57

Category:Movies > HD 1080p
Lang:English  English
Total Size:1,014 MB
Info Hash:1a0bda60d9acfa3c59eac04be6b5d8425b82cf4f
Added By:DaScubaDude
Date Added:09-11-2019 02:01:15

  

Files

File List: 
 File Size
The Dead Don't Die.theatrical.mp41,014 MB



Comments

There are currently no comments. Be the first one to write something !