Birds of Prey (and the Fantabulous Emancipation of One Harley Quinn) 2020 Marvels Agents of S H I E L D S07E01 XXX supergirl Jeffrey Epstein Filthy Rich s01e01 The Lovebirds 2020 What We Do in the Shadows S02E08 mrs america etrg Billions grant aew Marvels Agents of S.H.I.E.L.D. S07E01 Bad Boys for Life 2020 evo Billions S05E04 defending jacob rick and morty yts love life Stargirl s01e02 transplant agents ethd The Wrong Missy 2020 Survive the Night 2020 Rick and Morty S04E09 Raktanchal Barkskins s01e01 Capone 2020 Blindspot Snowpiercer S01E02 killing eve DDR Grant S01E02 nascar legends of tomorrow what we do in the shadows hindi 2160p Killing Eve S03E07 Scoob! 2020 rq.mp4 the walking dead agents of shield outlander ettv Brazzers Best Of Brazzers etmovies snowpiercer WWE  The Real Housewives of Beverly Hills S10E07 Americas Got Talent S15E01 The 100 S07E02 Locke  the flash Inheritance 2020 ddr stargirl American dad Grant S01E01 marvel week hindi 2020 See.S01E04.WEB.x264-PHOENiX[TGx] the 100 DCs Legends of Tomorrow S05E14 0 the good fight DC week 
Warning! Use a VPN When Downloading Torrents!
Your IP Address is 34.204.176.125. Location United States
Your Internet Provider can see when you download torrents! Hide your IP Address with a VPN
ETTV warns: You should use VPN to hide your torrenting. HIDE ME NOW
ETTV Recommended TV Shows
The.Good.Fight.S04E07.720p.WEB.H265.ETRG torrent
Man.With.a.Plan.S04E11.HDTV.x264-SVA[ettv] torrent
Council.of.Dads.S01E05.HDTV.x264-SVA[ettv] torrent
Siren.2018.S03E10.WEB.H264-BTX[ettv] torrent
In.the.Dark.2019.S02E07.HDTV.x264-SVA.ETRG torrent
Blindspot.S05E03.HDTV.x264-SVA.ETRG torrent

ETTV Recommended SD
Guest.Of.Honour.2020.HC.HDRip.XviD.AC3-EVO torrent
I.See.You.2019.BRRip.XviD.AC3-EVO torrent
100.Percent.Wolf.2020.HDRip.XviD.AC3-EVO torrent
Murder.Manual.2020.HDRip.XviD.AC3-EVO torrent

ETTV Recommended HD
Murder.Manual.1080p.AMZN.WEB-DL.DDP2.0.H.264-CMRG[EtHD] torrent
7500.2020.1080p.WEB-DL.H264.AC3-EVO[EtHD] torrent
The.High.Note.2020.1080p.WEB-DL.H264.AC3-EVO[EtHD] torrent
The.Vast.Of.Night.2020.1080p.AMZN.WEB-DL.H264.DDP.5.1-EVO[EtHD] torrent

ETTV Recommended UHD
The.Wrong.Missy.2020.UHD.MULTI.2160p.HDR.WEBRip.DDP.5.1.HEVC-DDR[EtHD] torrent
Queen & Slim (2019) [BluRay Rip 2160p HEVC 10bit-HDR ITA-ENG DTS-AC3-SUBS] [M@HD] torrent
1917.2019.HDR10Plus.2160p.UHD.BluRay.x265.iNTERNAL-JustWatch.ETRG torrent
Dolittle.2020.HDR10Plus.2160p.UHD.BluRay.x265.iNTERNAL-JustWatch.ETRG torrent

ETTV Recommended Cam
The Hunt 2020 HDCAM x264 AC3-ETRG torrent
The Burnt Orange Heresy 2020 720p HDCAM-C1NEM4 torrent

ETTV Recommended Foreign
After(2019) HDRip 720p [Hindi-Dub] Dual-Audio x264 - 1XCinema torrent
Door.Ke.Darshan.2020.1080p.S.M.WEB-DL.AAC.2.0.H.264-Telly torrent
Ponmagal.Vandhal.2020.1080p.AMZN.WEB-DL.DD+5.1.x265-Telly torrent
Allagash (2020) HDRip 720p [Hindi-Dub] Dual-Audio x264 - 1XCinema torrent

Sponsored


Download Torrent "Twelve Monkeys (1995) (1080p BluRay x265 HEVC 10bit DTS 5.1 Qman) [UTR]"

IMDB Details
Description:

N/A

Genre:

N/A

Download Torrent (Magnet)
Download Torrent (File)
Seeds: 145
Leechers: 20
Completed: 1,875 
Last Checked: 05-11-2019 15:36:24


Details
Title:Twelve Monkeys (1995) (1080p BluRay x265 HEVC 10bit DTS 5.1 Qman) [UTR]
Description:




Media Information

General
Format                                   : Matroska
Format version                           : Version 4 / Version 2
File size                                : 11.1 GiB
Duration                                 : 2 h 9 min
Overall bit rate                         : 12.3 Mb/s
Encoded date                             : UTC 2019-11-05 04:41:16
Writing application                      : mkvmerge v36.0.0 ('Is That Jazz?') 64-bit
Writing library                          : libebml v1.3.9 + libmatroska v1.5.2

Video
ID                                       : 1
Format                                   : HEVC
Format/Info                              : High Efficiency Video Coding
Format profile                           : Main [email protected]@Main
Codec ID                                 : V_MPEGH/ISO/HEVC
Duration                                 : 2 h 9 min
Bit rate                                 : 8 185 kb/s
Width                                    : 1 920 pixels
Height                                   : 1 032 pixels
Display aspect ratio                     : 1.85:1
Frame rate mode                          : Constant
Frame rate                               : 23.976 (24000/1001) FPS
Color space                              : YUV
Chroma subsampling                       : 4:2:0
Bit depth                                : 10 bits
Bits/(Pixel*Frame)                       : 0.172
Stream size                              : 7.41 GiB (67%)
Writing library                          : x265 3.1+8-21db162c8622:[Windows][MSVC 1921][64 bit] 10bit
Encoding settings                        : cpuid=1111039 / frame-threads=4 / numa-pools=16 / wpp / no-pmode / no-pme / no-psnr / no-ssim / log-level=2 / input-csp=1 / input-res=1920x1032 / interlace=0 / total-frames=186334 / level-idc=0 / high-tier=1 / uhd-bd=0 / ref=4 / no-allow-non-conformance / no-repeat-headers / annexb / no-aud / no-hrd / info / hash=0 / no-temporal-layers / open-gop / min-keyint=23 / keyint=250 / gop-lookahead=0 / bframes=8 / b-adapt=2 / b-pyramid / bframe-bias=0 / rc-lookahead=80 / lookahead-slices=4 / scenecut=40 / radl=0 / no-splice / no-intra-refresh / ctu=64 / min-cu-size=8 / no-rect / no-amp / max-tu-size=32 / tu-inter-depth=1 / tu-intra-depth=1 / limit-tu=0 / rdoq-level=2 / dynamic-rd=0.00 / no-ssim-rd / signhide / no-tskip / nr-intra=0 / nr-inter=0 / no-constrained-intra / no-strong-intra-smoothing / max-merge=3 / limit-refs=3 / limit-modes / me=3 / subme=5 / merange=57 / temporal-mvp / no-hme / weightp / no-weightb / no-analyze-src-pics / deblock=-3:-3 / no-sao / no-sao-non-deblock / rd=4 / no-early-skip / no-rskip / no-fast-intra / no-tskip-fast / no-cu-lossless / b-intra / no-splitrd-skip / rdpenalty=0 / psy-rd=1.00 / psy-rdoq=5.00 / no-rd-refine / no-lossless / cbqpoffs=0 / crqpoffs=0 / rc=crf / crf=18.0 / qcomp=0.60 / qpstep=4 / stats-write=0 / stats-read=0 / ipratio=1.40 / pbratio=1.30 / aq-mode=2 / aq-strength=1.00 / cutree / zone-count=0 / no-strict-cbr / qg-size=32 / no-rc-grain / qpmax=69 / qpmin=0 / no-const-vbv / sar=0 / overscan=0 / videoformat=5 / range=0 / colorprim=2 / transfer=2 / colormatrix=2 / chromaloc=0 / display-window=0cll=0,0 / min-luma=0 / max-luma=1023 / log2-max-poc-lsb=8 / vui-timing-info / vui-hrd-info / slices=1 / no-opt-qp-pps / no-opt-ref-list-length-pps / no-multi-pass-opt-rps / scenecut-bias=0.05 / no-opt-cu-delta-qp / no-aq-motion / no-hdr / no-hdr-opt / no-dhdr10-opt / no-idr-recovery-sei / analysis-reuse-level=5 / scale-factor=0 / refine-intra=0 / refine-inter=0 / refine-mv=0 / refine-ctu-distortion=0 / no-limit-sao / ctu-info=0 / no-lowpass-dct / refine-analysis-type=0 / copy-pic=1 / max-ausize-factor=1.0 / no-dynamic-refine / no-single-sei / no-hevc-aq / no-svt / no-field / qp-adaptation-range=1.00
Language                                 : English
Default                                  : Yes
Forced                                   : No

Audio #1
ID                                       : 2
Format                                   : DTS
Format/Info                              : Digital Theater Systems
Format profile                           : MA / Core
Mode                                     : 16
Format settings, Endianness              : Big
Codec ID                                 : A_DTS
Duration                                 : 2 h 9 min
Bit rate mode                            : Variable / Constant
Bit rate                                 : 3 725 kb/s / 1 509 kb/s
Channel(s)                               : 6 channels
Channel positions                        : Front: L C R, Side: L R, LFE
Sampling rate                            : 48.0 kHz
Frame rate                               : 93.750 FPS (512 spf)
Bit depth                                : 24 bits
Compression mode                         : Lossless / Lossy
Stream size                              : 3.37 GiB (30%)
Language                                 : English
Default                                  : Yes
Forced                                   : No

Audio #2
ID                                       : 3
Format                                   : AC-3
Format/Info                              : Audio Coding 3
Mode extension                           : CM (complete main)
Format settings, Endianness              : Big
Codec ID                                 : A_AC3
Duration                                 : 2 h 9 min
Bit rate mode                            : Constant
Bit rate                                 : 320 kb/s
Channel(s)                               : 2 channels
Channel positions                        : Front: L R
Sampling rate                            : 48.0 kHz
Frame rate                               : 31.250 FPS (1536 spf)
Bit depth                                : 16 bits
Compression mode                         : Lossy
Stream size                              : 296 MiB (3%)
Language                                 : English
Default                                  : No
Forced                                   : No

Subtitle #1
ID                                       : 4
Format                                   : PGS
Muxing mode                              : zlib
Codec ID                                 : S_HDMV/PGS
Codec ID/Info                            : Picture based subtitle format used on BDs/HD-DVDs
Duration                                 : 2 h 6 min
Bit rate                                 : 50.6 kb/s
Count of elements                        : 3926
Stream size                              : 45.7 MiB (0%)
Language                                 : English
Default                                  : Yes
Forced                                   : No

Subtitle #2
ID                                       : 5
Format                                   : PGS
Muxing mode                              : zlib
Codec ID                                 : S_HDMV/PGS
Codec ID/Info                            : Picture based subtitle format used on BDs/HD-DVDs
Duration                                 : 2 h 8 min
Bit rate                                 : 45.0 kb/s
Count of elements                        : 3634
Stream size                              : 41.5 MiB (0%)
Language                                 : Greek
Default                                  : No
Forced                                   : No

Menu
00:00:00.000                             : en:The Volunteer (Main Titles)
00:08:32.889                             : en:An Opportunity
00:10:56.366                             : en:Baltimore -- April 19990
00:16:37.332                             : en:The Deluxe Mental Hospital Tour
00:21:27.872                             : en:The Wrong Time
00:25:21.897                             : en:Colonics for Everyone!
00:29:25.265                             : en:Monkey Business
00:32:44.089                             : en:Emancipation
00:36:28.271                             : en:Bad Judgment
00:37:53.773                             : en:Science Ain't an Exact Science
00:39:58.607                             : en:Another Chance
00:42:04.232                             : en:Right on the Money
00:44:43.141                             : en:Baltimore -- November 1996
00:47:44.405                             : en:It's In Philadelphia
00:53:45.850                             : en:The Same Dream
00:57:11.472                             : en:Cole's Mission
00:58:48.152                             : en:They're Here!
01:01:18.677                             : en:All I See Are Dead People...
01:03:22.467                             : en:The Animal Activists
01:06:31.031                             : en:Going After Jeffery
01:10:04.744                             : en:The Timeworn Threat
01:15:48.796                             : en:It Was My Idea?
01:18:25.995                             : en:The Normal Reaction
01:21:03.235                             : en:You Are My Insanity
01:23:40.976                             : en:Tell Me What I Want...
01:25:12.276                             : en:The Man in the Picture
01:26:35.359                             : en:What's Real and What's Not
01:29:02.548                             : en:The Path of the Virus
01:31:31.279                             : en:Mentally Divergent
01:32:37.262                             : en:Seriously Crazy
01:35:02.574                             : en:I Want to Stay Here...
01:39:22.792                             : en:The Pimp and the Crazy Dentist
01:41:38.511                             : en:The Message
01:44:31.392                             : en:The Monkey Speaks
01:46:31.679                             : en:The Movie Never Changes
01:49:18.429                             : en:It Was Always You...
01:50:56.068                             : en:The Army of the Twelve Monkeys Factor
01:52:46.887                             : en:This Is My Dream
01:54:29.364                             : en:Someone Else
01:56:31.361                             : en:You Can Still Be a Hero
01:59:05.015                             : en:It Doesn't Even Have an Oder...
02:01:19.566                             : en:Full Circle
02:04:11.237                             : en:Insurance
02:05:30.608                             : en:End Titles

Source Information
Release:
Twelve.Monkeys.1995.4K.Remastered.BluRay.1080p 28.8GB



Category:Movies > HEVC/x265
Lang:English  English
Total Size:11.09 GB
Info Hash:af3e85b48e140ce3c1bbc6188c31f7a7ffba0390
Added By:UTR
Date Added:05-11-2019 15:36:16

Files

File List: 
 File Size
Twelve.Monkeys.(1995).1080p..10-bit.x265.DTS.5.1 Qman[UTR].mkv11.09 GB



Comments

There are currently no comments. Be the first one to write something !