the 100 ethd Sonic the Hedgehog 2020 rick and morty s04e09 evo ettv 2160p betaal Scoob! 2020 batwoman the flash The Hunt 2020 insecure The Gentlemen 2020 Birds of Prey (and the Fantabulous Emancipation of One Harley Quinn) 2020 supergirl Extraction 2020 The Blackout hindi hightown Outlander  0 run Snowpiercer S01E02 The Lovebirds 2020 seal team  AEW rick and morty s04e08 legends of tomorrow westworld star wars the rise of skywalker 2019 BILLIONS Hightown S01E02 rq.mp4 etmovies EtHD ddr Stargirl S01E01 The Invisible Man 2020 penny dreadful defending jacob Survive the Night 2020 Good Witch S06E04 Rick and Morty stargirl wwe stargirl s01e02 Penny Dreadful City of Angels S01E05 what we do in the shadows Killing Eve S03E07 Defending Jacob S01E07 Capone 2020 ufc Modern Love s01e07 Live PD s04e65 Billions S05E04 Killing Eve yts Locke  Bloodshot 2020 Harley Quinn Xxx Bad Boys for Life 2020 etrg snowpiercer Blindspot Inheritance 2020 90 Day Fiance Before The 90 Days S04E14 The Wrong Missy 2020 
Warning! Use a VPN When Downloading Torrents!
Your IP Address is 3.235.172.213. Location United States
Your Internet Provider can see when you download torrents! Hide your IP Address with a VPN
ETTV warns: You should use VPN to hide your torrenting. HIDE ME NOW
ETTV Recommended TV Shows
Snowpiercer.S01E02.HDTV.x264-KILLERS[ettv] torrent
Rick.and.Morty.S04E09.WEBRip.x264-BTX[ettv] torrent
I.Know.This.Much.Is.True.S01E03.WEB.H264-BTX[ettv] torrent
Stargirl.S01E02.720p.WEB.x265-[ettv] torrent

ETTV Recommended SD
Measure.For.Measure.2020.HDRip.XviD.AC3-EVO torrent
Return.Of.The.Tooth.Fairy.2020.HDRip.XviD.AC3-EVO torrent
Coven.Of.Evil.2020.HDRip.XviD.AC3-EVO torrent
Celebrity.Crush.2019.HDRip.XviD.AC3-EVO torrent

ETTV Recommended HD
Measure.For.Measure.2020.1080p.WEB-DL.H264.AC3-EVO[EtHD] torrent
Return.Of.The.Tooth.Fairy.2020.1080p.WEB-DL.H264.AC3-EVO[EtHD] torrent
Celebrity.Crush.2019.1080p.WEB-DL.H264.AC3-EVO[EtHD] torrent
Coven.Of.Evil.2020.1080p.WEB-DL.H264.AC3-EVO[EtHD] torrent

ETTV Recommended UHD
Lock.Up.1989.BDRip.2160p.UHD.HDR.Eng.DTS-HD.MA.ETRG torrent
2001.A.Space.Odyssey.1968.BDRip.2160p.UHD.HDR.Eng.DTS-HD.MA.ETRG torrent
War.of.the.Worlds.2005.4K.HDR.2160p.BDRip Ita Eng x265-NAHOM torrent
The Blues Brothers 1980.MULTi.UHD.BluRay.2160p.HDR.HEVC.DTS-X.7.1-DDR.mkv torrent

ETTV Recommended Cam
The Hunt 2020 HDCAM x264 AC3-ETRG torrent
The Burnt Orange Heresy 2020 720p HDCAM-C1NEM4 torrent

ETTV Recommended Foreign
The Bank Job 2008 1080p 10bit BluRay x265 HEVC [Hindi 5.1 - English 5.1] ESub - MoviePirate - Telly.mkv torrent
Muori papà... muori! (2019) [BluRay Rip 1080p ITA-RUS DTS-AC3 SUBS] [M@HD] torrent
All for Nikki  (2020) HDRip 720p [Hindi-Dub] Dual-Audio x264 - 1XCinema torrent
Betaal.S01.2020.UHD.2160p.HDR.WEB-Rip.Atmos.5.1.HEVC-DDR torrent

Sponsored


Download Torrent "The Shining (1980) (1080p BluRay x265 HEVC 10bit DTS 5.1 Qman) [UTR]"

IMDB Details
Description:

A family heads to an isolated hotel for the winter where a sinister presence influences the father into violence, while his psychic son sees horrific forebodings from both past and future.

Genre:

Drama, Horror

Download Torrent (Magnet)
Download Torrent (File)
Seeds: 120
Leechers: 34
Completed: 1,458 
Last Checked: 03-11-2019 18:49:29


Details
Title:The Shining (1980) (1080p BluRay x265 HEVC 10bit DTS 5.1 Qman) [UTR]
Description:




Media Information

General
Format                                   : Matroska
Format version                           : Version 4 / Version 2
File size                                : 10.9 GiB
Duration                                 : 2 h 23 min
Overall bit rate                         : 10.9 Mb/s
Encoded date                             : UTC 2019-11-03 16:13:12
Writing application                      : mkvmerge v36.0.0 ('Is That Jazz?') 64-bit
Writing library                          : libebml v1.3.9 + libmatroska v1.5.2

Video
ID                                       : 1
Format                                   : HEVC
Format/Info                              : High Efficiency Video Coding
Format profile                           : Main [email protected]@Main
Codec ID                                 : V_MPEGH/ISO/HEVC
Duration                                 : 2 h 23 min
Bit rate                                 : 6 567 kb/s
Width                                    : 1 920 pixels
Height                                   : 1 080 pixels
Display aspect ratio                     : 16:9
Frame rate mode                          : Constant
Frame rate                               : 23.976 (24000/1001) FPS
Color space                              : YUV
Chroma subsampling                       : 4:2:0
Bit depth                                : 10 bits
Bits/(Pixel*Frame)                       : 0.132
Stream size                              : 6.59 GiB (60%)
Writing library                          : x265 3.1+8-21db162c8622:[Windows][MSVC 1921][64 bit] 10bit
Encoding settings                        : cpuid=1111039 / frame-threads=4 / numa-pools=16 / wpp / no-pmode / no-pme / no-psnr / no-ssim / log-level=2 / input-csp=1 / input-res=1920x1080 / interlace=0 / total-frames=206811 / level-idc=0 / high-tier=1 / uhd-bd=0 / ref=4 / no-allow-non-conformance / no-repeat-headers / annexb / no-aud / no-hrd / info / hash=0 / no-temporal-layers / open-gop / min-keyint=23 / keyint=250 / gop-lookahead=0 / bframes=8 / b-adapt=2 / b-pyramid / bframe-bias=0 / rc-lookahead=80 / lookahead-slices=4 / scenecut=40 / radl=0 / no-splice / no-intra-refresh / ctu=64 / min-cu-size=8 / no-rect / no-amp / max-tu-size=32 / tu-inter-depth=1 / tu-intra-depth=1 / limit-tu=0 / rdoq-level=2 / dynamic-rd=0.00 / no-ssim-rd / signhide / no-tskip / nr-intra=0 / nr-inter=0 / no-constrained-intra / no-strong-intra-smoothing / max-merge=3 / limit-refs=3 / limit-modes / me=3 / subme=5 / merange=57 / temporal-mvp / no-hme / weightp / no-weightb / no-analyze-src-pics / deblock=-1:-1 / no-sao / no-sao-non-deblock / rd=4 / no-early-skip / no-rskip / no-fast-intra / no-tskip-fast / no-cu-lossless / no-b-intra / no-splitrd-skip / rdpenalty=0 / psy-rd=1.20 / psy-rdoq=5.00 / no-rd-refine / no-lossless / cbqpoffs=0 / crqpoffs=0 / rc=crf / crf=20.0 / qcomp=0.50 / qpstep=4 / stats-write=0 / stats-read=0 / ipratio=1.40 / pbratio=1.30 / aq-mode=2 / aq-strength=1.00 / cutree / zone-count=0 / no-strict-cbr / qg-size=32 / no-rc-grain / qpmax=69 / qpmin=0 / no-const-vbv / sar=0 / overscan=0 / videoformat=5 / range=0 / colorprim=2 / transfer=2 / colormatrix=2 / chromaloc=0 / display-window=0cll=0,0 / min-luma=0 / max-luma=1023 / log2-max-poc-lsb=8 / vui-timing-info / vui-hrd-info / slices=1 / no-opt-qp-pps / no-opt-ref-list-length-pps / no-multi-pass-opt-rps / scenecut-bias=0.05 / no-opt-cu-delta-qp / no-aq-motion / no-hdr / no-hdr-opt / no-dhdr10-opt / no-idr-recovery-sei / analysis-reuse-level=5 / scale-factor=0 / refine-intra=0 / refine-inter=0 / refine-mv=0 / refine-ctu-distortion=0 / no-limit-sao / ctu-info=0 / no-lowpass-dct / refine-analysis-type=0 / copy-pic=1 / max-ausize-factor=1.0 / no-dynamic-refine / no-single-sei / no-hevc-aq / no-svt / no-field / qp-adaptation-range=1.00
Language                                 : English
Default                                  : Yes
Forced                                   : No

Audio #1
ID                                       : 2
Format                                   : DTS
Format/Info                              : Digital Theater Systems
Format profile                           : MA / Core
Mode                                     : 16
Format settings, Endianness              : Big
Codec ID                                 : A_DTS
Duration                                 : 2 h 23 min
Bit rate mode                            : Variable / Constant
Bit rate                                 : 4 098 kb/s / 1 509 kb/s
Channel(s)                               : 6 channels
Channel positions                        : Front: L C R, Side: L R, LFE
Sampling rate                            : 48.0 kHz
Frame rate                               : 93.750 FPS (512 spf)
Bit depth                                : 24 bits
Compression mode                         : Lossless / Lossy
Stream size                              : 4.12 GiB (38%)
Language                                 : English
Default                                  : Yes
Forced                                   : No

Audio #2
ID                                       : 3
Format                                   : AC-3
Format/Info                              : Audio Coding 3
Format profile                           : Dolby Digital
Mode extension                           : CM (complete main)
Format settings, Endianness              : Big
Codec ID                                 : A_AC3
Duration                                 : 2 h 23 min
Bit rate mode                            : Constant
Bit rate                                 : 192 kb/s
Channel(s)                               : 2 channels
Channel positions                        : Front: L R
Sampling rate                            : 48.0 kHz
Frame rate                               : 31.250 FPS (1536 spf)
Bit depth                                : 16 bits
Compression mode                         : Lossy
Stream size                              : 197 MiB (2%)
Title                                    : Commentary by Garrett Brown/John Baxter
Language                                 : English
Default                                  : No
Forced                                   : No

Subtitle
ID                                       : 4
Format                                   : VobSub
Muxing mode                              : zlib
Codec ID                                 : S_VOBSUB
Codec ID/Info                            : Picture based subtitle format used on DVDs
Duration                                 : 2 h 16 min
Bit rate                                 : 7 572 b/s
Count of elements                        : 1521
Stream size                              : 7.40 MiB (0%)
Language                                 : English
Default                                  : Yes
Forced                                   : No

Menu
00:00:00.000                             : en:Drive to the Overlook
00:03:00.430                             : en:The Interview
00:05:05.138                             : en:Quite a Story
00:10:33.800                             : en:Bloody Vision
00:12:08.394                             : en:The Doctor's Questions
00:14:24.280                             : en:Family History
00:17:37.932                             : en:Closing Day
00:20:30.896                             : en:The Tour
00:24:58.622                             : en:Doc Gets the Message
00:28:51.688                             : en:Talk of Shining - and Room 237
00:34:10.215                             : en:A Month Later: Bouncing and Exploring
00:40:28.843                             : en:Tuesday: Curiosity for Danny, Rules for Wendy
00:46:00.925                             : en:Thursday: Snowbound
00:46:52.226                             : en:Saturday: Slipping Out of Touch
00:49:17.329                             : en:Come and Play
00:51:16.240                             : en:Monday: "I Love You, Danny"
00:57:01.918                             : en:Wednesday: Room 237 Beckons
00:58:36.847                             : en:Nightmares and Neck Wounds
01:02:37.170                             : en:The Gold Room
01:06:05.795                             : en:Words of Wisdom
01:09:00.762                             : en:Halloran Shines; Room 237 Spooks
01:16:52.316                             : en:Danny Shines; Jack Rages
01:22:18.642                             : en:The Party
01:25:29.916                             : en:Delbert Grady
01:31:41.162                             : en:"Redrum! Danny's Not Here"
01:34:03.805                             : en:Sabotage
01:35:48.618                             : en:Halloran Flies In
01:39:30.590                             : en:All Work and No Play
01:43:49.932                             : en:What Should Be Done With Danny
01:49:26.393                             : en:Jack in Storage; Wendy in a Frenzy
01:54:24.441                             : en:Grady Intervenes; Halloran En Route
01:58:44.617                             : en:"Redrum!"
02:01:09.554                             : en:"Here's Johnny"
02:05:30.064                             : en:On the Prowl
02:07:32.687                             : en:Halloran Killed
02:10:23.566                             : en:Into the Maze
02:12:10.089                             : en:"Great Party, Isn't It?"
02:15:03.387                             : en:Escape
02:18:57.037                             : en:The Overlook Claims Jack
02:21:16.343                             : en:End Credits

Source Information
Release:
The.Shining.1980.UHD.BluRay.2160p.DTS-HD.MA.5.1.HEVC.REMUX-FraMeSToR 79.3GB



Category:Movies > HEVC/x265
Lang:English  English
Total Size:10.91 GB
Info Hash:aff14583becf08bc47e10d7f4961ecb19457778c
Added By:UTR
Date Added:03-11-2019 18:49:27

Files

File List: 
 File Size
The.Shining.(1980).1080p.BluRay.10-bit.x265.DTS.5.1 Qman[UTR].mkv10.91 GB



Comments

There are currently no comments. Be the first one to write something !