Supergirl S05E17 the banker 2020 Contagion 2011 etmovies picard the invisible man 2020 The Gentlemen 2020 God Friended Me S02E18 The Walking Dead S10E14 Jumanji The Next Level 2019 ethd NCIS New Orleans S06E18 ncis BETTER CALL SAUL bad boys for life Greys Anatomy The Walking Dead  a quiet place part ii 2020 Ozark s03e03 Westworld s03e02 homeland s08e08 tiger king 1917 2019 star wars the rise of skywalker 2019 xxx Vivarium 2020 American Idol S18E09 Spenser Confidential 2020 outlander Ozark s03e01 Underwater 2020 ettv Westworld s03e03 720p Bloodshot 2020 The Call of the Wild 2020 Tiger King Murder, Mayhem and Madness S01E01 hindi Star Trek Picard S01E10 Last Week Tonight with John Oliver S07E06 evo yts batwoman Better Call Saul S05E07 Bad Boys for Life 2020 Ozark S03E05 rq.mp4 Bloodshot ddr etrg Onward 2020 Knives Out 2019 Birds of Prey (and the Fantabulous Emancipation of One Harley Quinn) 2020 frozen ii 2019 The Platform 2019 The Way Back 2020 Fantasy Island 2020 westworld s03e03 homeland supergirl Westworld The Blacklist S07E12 Ozark s03e04 outlander s05e07 The Gentlemen 2019 good girls s03e07 ozark The Hunt 2020 NCIS Los Angeles s11e19 sonic the hedgehog 2020 Ozark s03e02 the real housewives of atlanta s12e20 dolittle 2020 
ETTV Recommended TV Shows
9-1-1.S03E13.WEB.H264-iNSiDiOUS[ettv] torrent
Prodigal.Son.S01E18.WEBRip.x264-XLF[ettv] torrent
The.Plot.Against.America.S01E03.WEBRip.x264-XLF[ettv] torrent
Manifest.S02E12.HDTV.x264-SVA[ettv] torrent

ETTV Recommended SD
Escape from Pretoria.2020.BRRip.XviD-ETRG torrent
Bad.Boys.for.Life.2020..AMZN.HDRip.XViD-ETRG torrent
Sonic.the.Hedgehog.2020.AMZN.HDRip.XViD-ETRG torrent
Light.From.Light.2019.HDRip.XViD-ETRG torrent

ETTV Recommended HD
Marfa.Girl.2.2018.1080p.BluRay.x264-GETiT[EtHD] torrent
Bad Boys for Life.2020.1080p.WEB-DL.H264.AC3-EVO[EtHD] torrent
Escape.from.Pretoria.2020.LIMITED.1080p.BluRay.x264-DRONES[EtHD] torrent
Sonic.the.Hedgehog.2020.1080p.AMZN.WEB-DL.DDP5.1.H.264-TEPES[EtHD] torrent

ETTV Recommended UHD
Star.Wars.Episode.III.Revenge.of.the.Sith.2005.MULTi.UHD.2160p.HDR.Atmos.7.1.HEVC-DDR.mkv torrent
Bloodshot.2020.2160p.HDR.WEB-Rip.DDP5.1.HEVC-DDR.mkv torrent
Onward.2020.2160p.HDR.WEB-Rip.DD5.1.HEVC-DDR.mkv torrent
Black And Blue 2020.MULTi.UHD.2160p.HDR.DTS-HDMA..5.1.HEVC-DDR.mkv torrent

ETTV Recommended Cam
My Spy 2020 HDCAM x264 AC3-ETRG torrent
The Hunt 2020 HDCAM x264 AC3-ETRG torrent
The Burnt Orange Heresy 2020 720p HDCAM-C1NEM4 torrent
Fantasy Island 2020 UNRATED HDTS XViD AC3-ETRG torrent

ETTV Recommended Foreign
Bloodshot (2020) ITA-ENG Ac3 5.1 WEBRip 1080p H264 [ArMor] torrent
The Black Hole (2006) 720p WEBRip x264 Eng Subs [Dual Audio] [Hindi DD 2.0 - English 2.0] Exclusive By -=!Dr.STAR!=- torrent
Justin and the Knights of Valour (2013) 720p BluRay x264 Eng Subs [Dual Audio] [Hindi DD 2.0 - English 2.0] Exclusive By -=!Dr.STAR!=- torrent
Cut (2000) 720p BluRay x264 Eng Subs [Dual Audio] [Hindi DD 2.0 - English 2.0] Exclusive By -=!Dr.STAR!=- torrent


Download Torrent "Scarface (1983) (1080p BluRay x265 HEVC 10bit DTS 7.1 Qman) [UTR]"

IMDB Details
Description:

In 1980 Miami, a determined Cuban immigrant takes over a drug cartel and succumbs to greed.

Genre:

Crime, Drama

Download Torrent (Magnet)
Seeds: 87
Leechers: 80
Completed: 526 
Last Checked: 25-10-2019 18:39:55


Details
Title:Scarface (1983) (1080p BluRay x265 HEVC 10bit DTS 7.1 Qman) [UTR]
Description:



Media Information

General
Format                                   : Matroska
Format version                           : Version 4 / Version 2
File size                                : 20.3 GiB
Duration                                 : 2 h 49 min
Overall bit rate                         : 17.1 Mb/s
Encoded date                             : UTC 2019-10-25 13:40:29
Writing application                      : mkvmerge v36.0.0 ('Is That Jazz?') 64-bit
Writing library                          : libebml v1.3.9 + libmatroska v1.5.2

Video
ID                                       : 1
Format                                   : HEVC
Format/Info                              : High Efficiency Video Coding
Format profile                           : Main [email protected]@Main
Codec ID                                 : V_MPEGH/ISO/HEVC
Duration                                 : 2 h 49 min
Bit rate                                 : 11.3 Mb/s
Width                                    : 1 920 pixels
Height                                   : 816 pixels
Display aspect ratio                     : 2.35:1
Frame rate mode                          : Constant
Frame rate                               : 23.976 (24000/1001) FPS
Color space                              : YUV
Chroma subsampling                       : 4:2:0
Bit depth                                : 10 bits
Bits/(Pixel*Frame)                       : 0.301
Stream size                              : 13.4 GiB (66%)
Writing library                          : x265 3.1+8-21db162c8622:[Windows][MSVC 1921][64 bit] 10bit
Encoding settings                        : cpuid=1111039 / frame-threads=4 / numa-pools=16 / wpp / no-pmode / no-pme / no-psnr / no-ssim / log-level=2 / input-csp=1 / input-res=1920x816 / interlace=0 / total-frames=244350 / level-idc=0 / high-tier=1 / uhd-bd=0 / ref=4 / no-allow-non-conformance / no-repeat-headers / annexb / no-aud / no-hrd / info / hash=0 / no-temporal-layers / open-gop / min-keyint=23 / keyint=250 / gop-lookahead=0 / bframes=8 / b-adapt=2 / b-pyramid / bframe-bias=0 / rc-lookahead=80 / lookahead-slices=4 / scenecut=40 / radl=0 / no-splice / no-intra-refresh / ctu=64 / min-cu-size=8 / no-rect / no-amp / max-tu-size=32 / tu-inter-depth=1 / tu-intra-depth=1 / limit-tu=0 / rdoq-level=2 / dynamic-rd=0.00 / no-ssim-rd / signhide / no-tskip / nr-intra=0 / nr-inter=0 / no-constrained-intra / no-strong-intra-smoothing / max-merge=3 / limit-refs=3 / limit-modes / me=3 / subme=5 / merange=57 / temporal-mvp / no-hme / weightp / no-weightb / no-analyze-src-pics / deblock=-1:-1 / no-sao / no-sao-non-deblock / rd=4 / no-early-skip / no-rskip / no-fast-intra / no-tskip-fast / no-cu-lossless / b-intra / no-splitrd-skip / rdpenalty=0 / psy-rd=1.00 / psy-rdoq=5.00 / no-rd-refine / no-lossless / cbqpoffs=0 / crqpoffs=0 / rc=crf / crf=20.0 / qcomp=0.60 / qpstep=4 / stats-write=0 / stats-read=0 / ipratio=1.40 / pbratio=1.30 / aq-mode=2 / aq-strength=1.00 / cutree / zone-count=0 / no-strict-cbr / qg-size=32 / no-rc-grain / qpmax=69 / qpmin=0 / no-const-vbv / sar=0 / overscan=0 / videoformat=5 / range=0 / colorprim=2 / transfer=2 / colormatrix=2 / chromaloc=0 / display-window=0cll=0,0 / min-luma=0 / max-luma=1023 / log2-max-poc-lsb=8 / vui-timing-info / vui-hrd-info / slices=1 / no-opt-qp-pps / no-opt-ref-list-length-pps / no-multi-pass-opt-rps / scenecut-bias=0.05 / no-opt-cu-delta-qp / no-aq-motion / no-hdr / no-hdr-opt / no-dhdr10-opt / no-idr-recovery-sei / analysis-reuse-level=5 / scale-factor=0 / refine-intra=0 / refine-inter=0 / refine-mv=0 / refine-ctu-distortion=0 / no-limit-sao / ctu-info=0 / no-lowpass-dct / refine-analysis-type=0 / copy-pic=1 / max-ausize-factor=1.0 / no-dynamic-refine / no-single-sei / no-hevc-aq / no-svt / no-field / qp-adaptation-range=1.00
Language                                 : English
Default                                  : Yes
Forced                                   : No

Audio
ID                                       : 2
Format                                   : DTS
Format/Info                              : Digital Theater Systems
Format profile                           : X / MA / Core
Mode                                     : 16
Format settings, Endianness              : Big
Codec ID                                 : A_DTS
Duration                                 : 2 h 49 min
Bit rate mode                            : Variable / Variable / Constant
Bit rate                                 : 5 793 kb/s / 5 793 kb/s / 1 509 kb/s
Channel(s)                               : Object Based / 8 channels / 6 channels
Channel positions                        : Object Based / Front: L C R, Side: L R, Back: L R, LFE / Front: L C R, Side: L R, LFE
Sampling rate                            :  / 48.0 kHz / 48.0 kHz
Frame rate                               : 93.750 FPS (512 spf)
Bit depth                                :  / 24 bits / 24 bits
Compression mode                         :  / Lossless / Lossy
Stream size                              : 6.87 GiB (34%)
Language                                 : English
Default                                  : No
Forced                                   : No

Subtitle
ID                                       : 3
Format                                   : VobSub
Muxing mode                              : zlib
Codec ID                                 : S_VOBSUB
Codec ID/Info                            : Picture based subtitle format used on DVDs
Duration                                 : 2 h 42 min
Bit rate                                 : 11.7 kb/s
Count of elements                        : 2406
Stream size                              : 13.6 MiB (0%)
Language                                 : English
Default                                  : Yes
Forced                                   : No

Menu
00:00:00.000                             : :Chapter 01
00:08:11.574                             : :Chapter 02
00:10:55.238                             : :Chapter 03
00:13:40.194                             : :Chapter 04
00:15:43.025                             : :Chapter 05
00:20:58.299                             : :Chapter 06
00:29:51.289                             : :Chapter 07
00:33:09.362                             : :Chapter 08
00:34:42.539                             : :Chapter 09
00:43:13.174                             : :Chapter 10
00:46:46.053                             : :Chapter 11
00:50:45.251                             : :Chapter 12
00:59:02.706                             : :Chapter 13
01:04:15.643                             : :Chapter 14
01:08:20.471                             : :Chapter 15
01:12:57.540                             : :Chapter 16
01:17:17.842                             : :Chapter 17
01:23:33.133                             : :Chapter 18
01:28:48.323                             : :Chapter 19
01:33:44.244                             : :Chapter 20
01:43:31.497                             : :Chapter 21
01:47:01.707                             : :Chapter 22
01:51:48.410                             : :Chapter 23
01:57:19.991                             : :Chapter 24
02:02:43.106                             : :Chapter 25
02:07:08.204                             : :Chapter 26
02:13:58.405                             : :Chapter 27
02:16:04.448                             : :Chapter 28
02:21:46.081                             : :Chapter 29
02:24:22.779                             : :Chapter 30
02:30:37.862                             : :Chapter 31
02:35:14.889                             : :Chapter 32
02:37:33.069                             : :Chapter 33
02:40:04.303                             : :Chapter 34
02:43:21.000                             : :Chapter 35

Source Information
Scarface.1983.2160p.UHD.Remux.HEVC.HDR.DTS.X.7.1-playBD 73.2GB


Note From UTR
Whilst we are happy for our releases to be re-posted on a platform we aren't on, please do so in an 'as-is' format. We ask that you do not create a new torrent, include all descriptions you see above including the UTR logo, tags, notes and screenshots. If you'd like to become a permanent poster on a website we don't post to, feel free to get in contact with a UTR member.
If possible please donate: BTC 1QA5fum5AyXvWzdVCkQzUNvw3Ef15fHRaR



Category:Movies > HEVC/x265
Lang:English  English
Total Size:20.31 GB
Info Hash:df6dac46589ad236f0a621087093f6c3fbfdd168
Added By:UTR
Date Added:25-10-2019 18:39:52

Files

File List: 
 File Size
Scarface.(1983).1080p.BluRay.10-bit.x265.DTS.7.1 Qman[UTR].mkv20.31 GB



Comments

There are currently no comments. Be the first one to write something !