0 snowpiercer the 100 warrior nun Hanna s02e08 Force of Nature 2020 Independence Day 1996 Hanna s02e01 You Should Have Left 2020 Doom Patrol S02E03 ethd 7500 2019 Hanna s02e05 evo WWE Warrior Nun S01E01 yts billions Blindspot Bad Boys for Life 2020 Xxx Hanna s02e04 The Outpost 2020 formula 1 365 Days 2020 Hanna s02e03 etmovies Blindspot S05E08 f1 Doom Patrol S02E04 Birds of Prey (and the Fantabulous Emancipation of One Harley Quinn) 2020 ufc Doom Patrol Marvels Agents of S.H.I.E.L.D. S07E06 EtHD Perry Mason s01e02 Big Dogs S01E01 Doom Patrol s02e01 Hanna s02e06 Brazzers Best Of Brazzers dark Greyhound 2020 hamilton Hindi Westworld etrg Irresistible 2020 NOS4A2 Trolls World Tour 2020 rq.mp4 Hanna s02e07 Trackers Artemis Fowl 2020 The Invisible Man 2020 Eurovision Song Contest The Story of Fire Saga 2020 Scoob! 2020 stargirl The King of Staten Island 2020 Knives Out 2019 Hamilton 2020 Lost Bullet 2020 Doom Patrol s02e02 Yellowstone S03E03 ettv The 100 S07E07 hanna Hanna s02e02 hindi 2020 ddr arrow español condor 
Warning! Use a VPN When Downloading Torrents!
Your IP Address is 3.236.97.49. Location United States
Your Internet Provider can see when you download torrents! Hide your IP Address with a VPN
ETTV warns: You should use VPN to hide your torrenting. HIDE ME NOW
ETTV Recommended TV Shows
Homeland.S08E08.MULTi.1080p.HDTV.H264-HYBRiS[ettv] torrent
Perry.Mason.2020.S01E03.WEB.H264-BTX[ettv] torrent
Ill.Be.Gone.in.the.Dark.S01E02.WEB.H264-BTX[ettv] torrent
Snowpiercer.S01E08.WEBRip.x264-BTX[ettv] torrent
Stargirl.S01E08.1080p.WEB.H264-BTX[ettv] torrent
60.Minutes.S52E40.WEB.h264-SNiPER[ettv] torrent

ETTV Recommended SD
Nowhere.Alaska.2020.HDRip.XviD.AC3-EVO[EtMovies] torrent
Amityville.Island.2020.1080p.AMZN.WEBRip.X264.DD.2.0-EVO[EtHD] torrent
Broil.2020.HDRip.XviD.AC3-EVO[EtMovies] torrent
Death.Of.A.Vlogger.2020.HDRip.XviD.AC3-EVO[EtMovies] torrent

ETTV Recommended HD
Easy Rider  (Drama 1969)  Peter Fonda  720p  BrRip torrent
Cinderela.Pop.2019.PROPER.1080p.NF.WEB-DL.DDP5.1.X264-QOQ[EtHD] torrent
Broil.2020.1080p.WEB-DL.H264.AC3-EVO[EtHD] torrent
Death.Of.A.Vlogger.2020.1080p.WEBRip.X264.DD.2.0-EVO[EtHD] torrent

ETTV Recommended UHD
Escape.From.L.A.1996.4K.MULTi.2160p.HDR.WEBRip.TrueHD.5.1.HEVC-DDR.mkv torrent
INXS - Live Baby Live 1991 (2020).UHD.Bluray.2160p.HDR.Atmos.7.1.HEVC-DDR.mkv torrent
Tropic.Thunder.2008.MULTi.TC.2160p.HDR.WEBRip.DTS-HDMA.5.1.HEVC-DDR.mkv torrent
The.Magnificent.Seven.2016.BDRip.2160p.UHD.HDR.Eng.TrueHD.ETRG torrent
Playing.with.Fire.2019.4K.MULTI.2160p.HDR.WEBRip.DTS-HDMA.5.1.HEVC-DDR.mkv torrent
The.Last.Days.of.American.Crime.2020.4K.MULTI.2160p.HDR.WEBRip.DDP.5.1.HEVC-DDR.mkv torrent

ETTV Recommended Cam
The Hunt 2020 HDCAM x264 AC3-ETRG torrent
The Burnt Orange Heresy 2020 720p HDCAM-C1NEM4 torrent

ETTV Recommended Foreign
Ranjha.Refugee.2018.1080p.AMZN.WEB-DL.DD+2.0.H.264-Telly torrent
Jaga.Jagravan.Joga.2019.1080p.AMZN.WEB-DL.DD+2.0.H.264-Telly torrent
Metal Tornado (2011) 720p BluRay x264 [Dual Audio] [Hindi DD 2.0 - English 5.1] Exclusive By -=!Dr.STAR!=- torrent
Bone Eater (2007) 720p WEBRip x264 Eng Subs [Dual Audio] [Hindi DD 2.0 - English 2.0] Exclusive By -=!Dr.STAR!=- torrent
Disturbing the peace-Sotto assedio (2020) ITA-ENG Ac3 5.1 BDRip 1080p H264 [ArMor] torrent
Weathering with You (2019) + Extras (1080p BluRay x265 HEVC 10bit EAC3 5.1 Japanese SAMPA) [QxR] torrent

ETTV Recommended Music
[art rock] (1976) Frank Zappa - Zoot Allures [FLAC] [DarkAngie] torrent
A MusiCares Tribute to Barbra Streisand (2012)[BRRip 1080p x264 by alE13 AC3/DTS/PCM][Eng] torrent
VA - 1990s Throwback (2020) Mp3 320kbps [PMEDIA] ⭐️ torrent
Kierra Luv - Take It Or Leave It Rap Album Mp3~(2020) [320]  kbps Beats⭐ torrent
[indie-pop, indie-rock] (2020) The Charlatans - Between 10th and 11th (Expanded Edition) [FLAC] [DarkAngie] torrent
Don Henley - Studio Discography (1982-2015) [320] vtwin88cube torrent


Download Torrent "brightburn (2019)Mp-4 X264 1080p AAC[DSD]"

IMDB Details
Description:

What if a child from another world crash-landed on Earth, but instead of becoming a hero to mankind, he proved to be something far more sinister?

Genre:

Horror, Sci-Fi

Download Torrent (Magnet)
Download Torrent (File)

Seeds: 72
Leechers: 21

Uploaded by:
DaScubaDude


Category:
Movies > HD 1080p (Great for large screens)


Details
Title:brightburn (2019)Mp-4 X264 1080p AAC[DSD]
Description:
Seedboxed!!




General

Complete name                            : BRIGHTBURN.mp4

Format                                   : MPEG-4

Format profile                           : Base Media / Version 2

Codec ID                                 : mp42 (mp42/isom/avc1)

File size                                : 1.43 GiB

Duration                                 : 1 h 30 min

Overall bit rate mode                    : Variable

Overall bit rate                         : 2 269 kb/s

Movie name                               : Brightburn

Performer                                : David Yarovesky

Performer/Sorted by                      : David Yarovesky

Genre                                    : Horror & Science Fiction & Thriller

Description                              : What if a child from another world crash-landed on Earth, but instead of becoming a hero to mankind, he proved to be something far more sinister?

Encoded date                             : UTC 2019-10-18 02:23:55

Tagged date                              : UTC 2019-10-18 03:37:42

Writing application                      : DVDFab 11.0.5.5

Cover                                    : Yes

Title/Sort                               : Brightburn

LongDescription                          : What if a child from another world crash-landed on Earth, but instead of becoming a hero to mankind, he proved to be something far more sinister?


Video

ID                                       : 1

Format                                   : AVC

Format/Info                              : Advanced Video Codec

Format profile                           : [email protected]

Format settings                          : CABAC / 2 Ref Frames

Format settings, CABAC                   : Yes

Format settings, RefFrames               : 2 frames

Format settings, GOP                     : M=1, N=24

Codec ID                                 : avc1

Codec ID/Info                            : Advanced Video Coding

Duration                                 : 1 h 30 min

Bit rate mode                            : Variable

Bit rate                                 : 1 783 kb/s

Maximum bit rate                         : 2 776 kb/s

Width                                    : 1 920 pixels

Height                                   : 804 pixels

Display aspect ratio                     : 2.40:1

Frame rate mode                          : Constant

Frame rate                               : 23.976 (24000/1001) FPS

Color space                              : YUV

Chroma subsampling                       : 4:2:0

Bit depth                                : 8 bits

Scan type                                : Progressive

Bits/(Pixel*Frame)                       : 0.048

Stream size                              : 1.13 GiB (79%)

Encoded date                             : UTC 2019-10-18 02:23:55

Tagged date                              : UTC 2019-10-18 03:37:41

Color primaries                          : BT.709

Transfer characteristics                 : BT.709

Matrix coefficients                      : BT.709

Menus                                    : 6


Audio

ID                                       : 2

Format                                   : AAC

Format/Info                              : Advanced Audio Codec

Format profile                           : LC

Codec ID                                 : mp4a-40-2

Duration                                 : 1 h 30 min

Bit rate mode                            : Variable

Bit rate                                 : 448 kb/s

Maximum bit rate                         : 455 kb/s

Channel(s)                               : 6 channels

Channel positions                        : Front: L C R, Side: L R, LFE

Sampling rate                            : 48.0 kHz

Frame rate                               : 46.875 FPS (1024 SPF)

Compression mode                         : Lossy

Stream size                              : 290 MiB (20%)

Title                                    : English (aac 5.1)

Language                                 : English

Default                                  : Yes

Alternate group                          : 1

Encoded date                             : UTC 2019-10-18 02:23:55

Tagged date                              : UTC 2019-10-18 03:37:41


Text #1

ID                                       : 3

Format                                   : VobSub

Codec ID                                 : mp4s-E0

Codec ID/Info                            : The same subtitle format used on DVDs

Duration                                 : 1 h 28 min

Bit rate mode                            : Variable

Bit rate                                 : 8 675 b/s

Maximum bit rate                         : 4 249 Mb/s

Stream size                              : 5.51 MiB (0%)

Language                                 : English

Default                                  : Yes

Forced                                   : No

Alternate group                          : 2

Encoded date                             : UTC 2019-10-18 02:23:55

Tagged date                              : UTC 2019-10-18 03:35:50


Text #2

ID                                       : 4

Format                                   : VobSub

Codec ID                                 : mp4s-E0

Codec ID/Info                            : The same subtitle format used on DVDs

Duration                                 : 1 h 25 min

Bit rate mode                            : Variable

Bit rate                                 : 6 839 b/s

Maximum bit rate                         : 4 249 Mb/s

Stream size                              : 4.18 MiB (0%)

Language                                 : English

Default                                  : No

Forced                                   : No

Alternate group                          : 2

Encoded date                             : UTC 2019-10-18 02:23:55


Tagged date                              : UTC 2019-10-18 03:32:17

Category:Movies > HD 1080p
Lang:English  English
Total Size:1.43 GB
Info Hash:9d8a32773013822fc5a5974fa52d2663574072fd
Added By:DaScubaDude
Date Added:18-10-2019 23:51:29

  

Files

File List: 
 File Size
BRIGHTBURN_.theatrical.mp41.43 GB



Comments

There are currently no comments. Be the first one to write something !