etmovies Sonic the Hedgehog 2020 Space Force s01e07 Scoob! 2020 Space Force S01E01 in the dark ita the flash  etrg Siren S03E10 ettv Space Force s01e09 Space Force s01e05 agents of shield Billions 2160p Marvels Agents of S.H.I.E.L.D. S07E01 what we do in the shadows Siren Space Force s01e06 killing eve Jersey Shore Family Vacation s03e26 Snowpiercer Capone 2020 ethd The Wrong Missy 2020 Bad Boys for Life 2020 wwe evo stargirl THE 100 ddr hindi 2020 SEAL Team  defending jacob Space Force s01e08 Birds of Prey (and the Fantabulous Emancipation of One Harley Quinn) 2020 Space Force s01e03 Locke  The High Note 2020 supergirl Brazzers Best Of Brazzers Space Force s01e04 Legends of Tomorrow Inheritance 2020 Bering Sea Gold S12E03 HINDI Joker 2019 Survive the Night 2020 RuPauls Drag Race S12E14 blindspot Gangs of London s01e06 The 100 S07E02 yts rick and morty westworld Space Force bloodshot 2020 defending jacob s01e08 the walking dead 0 Extraction 2020 harley quinn Blindspot S05E03 Space Force S01E02 rq.mp4 xxx dc week 
Warning! Use a VPN When Downloading Torrents!
Your IP Address is 3.231.220.225. Location United States
Your Internet Provider can see when you download torrents! Hide your IP Address with a VPN
ETTV warns: You should use VPN to hide your torrenting. HIDE ME NOW
ETTV Recommended TV Shows
Casualty.S34E35.HDTV.x264-RiVER[ettv] torrent
Hightown.S01E03.WEB.H264-BTX[ettv] torrent
Vida.S03E06.WEB.H264-BTX[ettv] torrent
Surviving.Evil.S03E10.WEB.X265.DD2.0.ETRG torrent

ETTV Recommended SD
The.Hunt.2020.BDRip.XviD.AC3-EVO torrent
The.Vast.Of.Night.2020.HDRip.XviD.AC3-EVO torrent
A.Good.Woman.Is.Hard.To.Find.2019.BRRip.XviD.AC3-EVO torrent
Gabriels Inferno.2020.HDRip.XviD.AC3-EVO torrent

ETTV Recommended HD
Code.of.Thieves.2020.1080p.AMZN.WEB-DL.DDP2.0.H.264-CMRG[EtHD] torrent
Gabriels.Inferno.2020.1080p.WEB-DL.X264.AC3-EVO[EtHD] torrent
The Blackout 2019 BluRay 1080p DTSHD 5.1 x264-LEGi0N[EtHD] torrent
Spider.Man.Homecoming.2017.BRRip.1080P.HEVC.HDR.Eng.DD5.1.ETRG torrent

ETTV Recommended UHD
Snitch 2013.MULTi.UHD.Blu-ray.2160p.HDR.Atmos.7.1.HEVC-DDR.mkv torrent
Superman.Red.Son.2020.UHD.BluRay.2160p.HDR.DTS-HDMA.5.1.HEVC-DDR.mkv torrent
The.Vast.of.Night.2019.UHD.2160p.HDR.WebRip.DDP.5.1.HEVC-DDR.mkv torrent
Spider.Man.Homecoming.2017.BDRip.2160P.UHD.HDR.Eng.TrueHD.ETRG torrent

ETTV Recommended Cam
The Hunt 2020 HDCAM x264 AC3-ETRG torrent
The Burnt Orange Heresy 2020 720p HDCAM-C1NEM4 torrent

ETTV Recommended Foreign
Dhoom (2004) Hindi (1080p BluRay x265 HEVC 10bit AAC 5.1 ESub) - [Musafirboy] torrent
Proximity (2020) 1080p WEBRp Dual Audio [Hindi Dubbed (Unofficial VO) + English (ORG)] CineVood torrent
Dilwale Dulhania Le Jayenge.(1995).1080p.BluRay.Rip.x264.DTS.HDMA.7.1.DUS-IcTv-Silver Jubilee Celebration[EtHD] torrent
Law.Abiding.Citizen.2009.1080p.AMZN.WEB-DL.HIN-Multi.DD+5.1.x264-Telly torrent

Sponsored


Download Torrent "Scary Stories to Tell in the Dark.2019.READNFO.720p.WEB-DL.H264.AC3.LLG"

IMDB Details
Description:

A group of teens face their fears in order to save their lives.

Genre:

Horror, Mystery, Thriller

Download Torrent (Magnet)
Download Torrent (File)
Seeds: 92
Leechers: 67
Completed: 402 
Last Checked: 10-10-2019 13:15:59


Details
Title:Scary Stories to Tell in the Dark.2019.READNFO.720p.WEB-DL.H264.AC3.LLG
Description:




******************************Thumbnail:**********************




******************************Screenshots:******************** 

Screenshot 1

Screenshot 2

Screenshot 3

Screenshot 4

Screenshot 5

Screenshot 6

Screenshot 7

Screenshot 8

Screenshot 9

Screenshot 0

*************************************************************** 
General
Scary Stories to Tell in the Dark.2019.READNFO.720p.WEB-DL.H264.AC3.LLG.mp4
Format                                   : MPEG-4
Format profile                           : Base Media
Codec ID                                 : isom (isom/iso2/avc1/mp41)
File size                                : 2.43 GiB
Duration                                 : 1 h 43 min
Overall bit rate mode                    : Variable
Overall bit rate                         : 3 368 kb/s

Video
ID                                       : 1
Format                                   : AVC
Format/Info                              : Advanced Video Codec
Format profile                           : [email protected]
Format settings                          : CABAC / 1 Ref Frames
Format settings, CABAC                   : Yes
Format settings, Reference frames        : 1 frame
Codec ID                                 : avc1
Codec ID/Info                            : Advanced Video Coding
Duration                                 : 1 h 43 min
Bit rate mode                            : Variable
Bit rate                                 : 2 980 kb/s
Maximum bit rate                         : 9 000 kb/s
Width                                    : 1 920 pixels
Height                                   : 804 pixels
Display aspect ratio                     : 2.40:1
Frame rate mode                          : Constant
Frame rate                               : 25.000 FPS
Color space                              : YUV
Chroma subsampling                       : 4:2:0
Bit depth                                : 8 bits
Scan type                                : Progressive
Bits/(Pixel*Frame)                       : 0.077
Stream size                              : 2.15 GiB (88%)
Language                                 : English

Audio
ID                                       : 2
Format                                   : AC-3
Format/Info                              : Audio Coding 3
Commercial name                          : Dolby Digital
Codec ID                                 : ac-3
Duration                                 : 1 h 43 min
Bit rate mode                            : Constant
Bit rate                                 : 384 kb/s
Channel(s)                               : 2 channels
Channel layout                           : L R
Sampling rate                            : 48.0 kHz
Frame rate                               : 31.250 FPS (1536 SPF)
Bit depth                                : 16 bits
Compression mode                         : Lossy
Stream size                              : 283 MiB (11%)
Language                                 : English
Service kind                             : Complete Main
Default                                  : Yes
Alternate group                          : 1

Menu #1
ID                                       : 3
Codec ID                                 : text
Duration                                 : 1 h 43 min
Language                                 : English


*************************************************************** 




Category:Movies > HD 720p
Lang:English  English
Total Size:2.51 GB
Info Hash:85bcb40e3ae211527dbb42f43ba89e3e82c70485
Added By:LifeLongg
Date Added:10-10-2019 13:15:55

  

Files

File List: 
 File Size
Sample.ts80 MB
Scary Stories to Tell in the Dark.2019.READNFO.720p.WEB-DL.H264.AC3.LLG.mp42.43 GB



Comments

There are currently no comments. Be the first one to write something !