Birds of Prey (and the Fantabulous Emancipation of One Harley Quinn) 2020 Marvels Agents of S H I E L D S07E01 XXX supergirl Jeffrey Epstein Filthy Rich s01e01 The Lovebirds 2020 What We Do in the Shadows S02E08 mrs america etrg Billions grant aew Marvels Agents of S.H.I.E.L.D. S07E01 Bad Boys for Life 2020 evo Billions S05E04 defending jacob rick and morty yts love life Stargirl s01e02 transplant agents ethd The Wrong Missy 2020 Survive the Night 2020 Rick and Morty S04E09 Raktanchal Barkskins s01e01 Capone 2020 Blindspot Snowpiercer S01E02 killing eve DDR Grant S01E02 nascar legends of tomorrow what we do in the shadows hindi 2160p Killing Eve S03E07 Scoob! 2020 rq.mp4 the walking dead agents of shield outlander ettv Brazzers Best Of Brazzers etmovies snowpiercer WWE  The Real Housewives of Beverly Hills S10E07 Americas Got Talent S15E01 The 100 S07E02 Locke  the flash Inheritance 2020 ddr stargirl American dad Grant S01E01 marvel week hindi 2020 See.S01E04.WEB.x264-PHOENiX[TGx] the 100 DCs Legends of Tomorrow S05E14 0 the good fight DC week 
Warning! Use a VPN When Downloading Torrents!
Your IP Address is 3.231.220.225. Location United States
Your Internet Provider can see when you download torrents! Hide your IP Address with a VPN
ETTV warns: You should use VPN to hide your torrenting. HIDE ME NOW
ETTV Recommended TV Shows
Man.With.a.Plan.S04E11.HDTV.x264-SVA[ettv] torrent
Siren.2018.S03E10.WEB.H264-BTX[ettv] torrent
In.the.Dark.2019.S02E07.HDTV.x264-SVA.ETRG torrent
Blindspot.S05E03.HDTV.x264-SVA.ETRG torrent

ETTV Recommended SD
7500.2020.HDRip.XviD.AC3-EVO torrent
Code.of.Thieves.2020.HDRip.XviD.AC3-EVO torrent
Debt.Collectors.2020.HDRip.XviD.AC3-EVO torrent
For.We.Are.Many.2019.HDRip.XviD.AC3-EVO torrent

ETTV Recommended HD
For.We.Are.Many.2019.1080p.WEBRip.X264.DD.2.0-EVO[EtHD] torrent
Debt.Collectors.2020.1080p.WEBRip.X264.DD.5.1-EVO[EtHD] torrent
Code.of.Thieves.2020.1080p.AMZN.WEB-DL.DDP2.0.H.264-CMRG[EtHD] torrent
The.Berlin.Bride.2020.1080p.AMZN.WEB-DL.DDP2.0.H.264-CMRG[EtHD] torrent

ETTV Recommended UHD
The.Wrong.Missy.2020.UHD.MULTI.2160p.HDR.WEBRip.DDP.5.1.HEVC-DDR[EtHD] torrent
Queen & Slim (2019) [BluRay Rip 2160p HEVC 10bit-HDR ITA-ENG DTS-AC3-SUBS] [M@HD] torrent
1917.2019.HDR10Plus.2160p.UHD.BluRay.x265.iNTERNAL-JustWatch.ETRG torrent
Dolittle.2020.HDR10Plus.2160p.UHD.BluRay.x265.iNTERNAL-JustWatch.ETRG torrent

ETTV Recommended Cam
The Hunt 2020 HDCAM x264 AC3-ETRG torrent
The Burnt Orange Heresy 2020 720p HDCAM-C1NEM4 torrent

ETTV Recommended Foreign
Allagash (2020) HDRip 720p [Hindi-Dub] Dual-Audio x264 - 1XCinema torrent
Frozen.II.2019.ESTONiAN.1080p.WEBRip.x264-EMX[EtHD] torrent
Golkeri.2020.720p.AMZN.WEB-DL.DD+5.1.x264-Telly torrent
Stinger (2005) 720p BluRay x264 [Dual Audio] [Hindi DD 2.0 - English 5.1] Exclusive By -=!Dr.STAR!=- torrent

Sponsored


Download Torrent "Faster (2010)Mp-4 X264 1080p AAC[DSD]"

IMDB Details
Description:

An ex-con gets on a series of apparently unrelated killings. He gets tracked by a veteran cop with secrets of his own and an egocentric hit man.

Genre:

Action, Crime, Drama, Thriller

Download Torrent (Magnet)
Download Torrent (File)
Seeds: 108
Leechers: 29
Completed: 327 
Last Checked: 09-10-2019 06:28:32


Details
Title:Faster (2010)Mp-4 X264 1080p AAC[DSD]
Description:
Seedboxed!!

Wide Screen!




General

Complete name                            : FASTER.mp4

Format                                   : MPEG-4

Format profile                           : Base Media / Version 2

Codec ID                                 : mp42 (mp42/isom/avc1)

File size                                : 1.53 GiB

Duration                                 : 1 h 37 min

Overall bit rate mode                    : Variable

Overall bit rate                         : 2 234 kb/s

Movie name                               : FASTER.theatrical

Performer                                : George Tillman, Jr.

Performer/Sorted by                      : George Tillman, Jr.

Genre                                    : Crime & Drama & Action & Thriller

Description                              : After 10 years in prison, Driver is now a free man with a single focus - hunting down the people responsible for brutally murdering his brother.

Encoded date                             : UTC 2019-10-08 22:39:45

Tagged date                              : UTC 2019-10-08 23:16:11

Writing application                      : DVDFab 11.0.5.3

Cover                                    : Yes

Title/Sort                               : Faster

LongDescription                          : After 10 years in prison, Driver is now a free man with a single focus - hunting down the people responsible for brutally murdering his brother.


Video

ID                                       : 1

Format                                   : AVC

Format/Info                              : Advanced Video Codec

Format profile                           : [email protected]

Format settings                          : CABAC / 2 Ref Frames

Format settings, CABAC                   : Yes

Format settings, RefFrames               : 2 frames

Format settings, GOP                     : M=1, N=24

Codec ID                                 : avc1

Codec ID/Info                            : Advanced Video Coding

Duration                                 : 1 h 37 min

Bit rate mode                            : Variable

Bit rate                                 : 1 771 kb/s

Maximum bit rate                         : 2 763 kb/s

Width                                    : 1 920 pixels

Height                                   : 800 pixels

Display aspect ratio                     : 2.40:1

Frame rate mode                          : Constant

Frame rate                               : 23.976 (24000/1001) FPS

Color space                              : YUV

Chroma subsampling                       : 4:2:0

Bit depth                                : 8 bits

Scan type                                : Progressive

Bits/(Pixel*Frame)                       : 0.048

Stream size                              : 1.21 GiB (79%)

Encoded date                             : UTC 2019-10-08 22:39:45

Tagged date                              : UTC 2019-10-08 23:16:11

Color primaries                          : BT.709

Transfer characteristics                 : BT.709

Matrix coefficients                      : BT.709

Menus                                    : 5


Audio

ID                                       : 2

Format                                   : AAC

Format/Info                              : Advanced Audio Codec

Format profile                           : LC

Codec ID                                 : mp4a-40-2

Duration                                 : 1 h 37 min

Bit rate mode                            : Variable

Bit rate                                 : 448 kb/s

Maximum bit rate                         : 454 kb/s

Channel(s)                               : 6 channels

Channel positions                        : Front: L C R, Side: L R, LFE

Sampling rate                            : 48.0 kHz

Frame rate                               : 46.875 FPS (1024 SPF)

Compression mode                         : Lossy

Stream size                              : 314 MiB (20%)

Title                                    : English (aac 5.1)

Language                                 : English

Default                                  : Yes

Alternate group                          : 1

Encoded date                             : UTC 2019-10-08 22:39:45

Tagged date                              : UTC 2019-10-08 23:16:11


Text #1

ID                                       : 3

Format                                   : VobSub

Codec ID                                 : mp4s-E0

Codec ID/Info                            : The same subtitle format used on DVDs

Duration                                 : 1 h 33 min

Bit rate mode                            : Variable

Bit rate                                 : 6 379 b/s

Maximum bit rate                         : 4 249 Mb/s

Stream size                              : 4.26 MiB (0%)

Language                                 : English

Default                                  : Yes

Forced                                   : No

Alternate group                          : 2

Encoded date                             : UTC 2019-10-08 22:39:45


Tagged date                              : UTC 2019-10-08 23:14:36

Category:Movies > HD 1080p
Lang:Unknown/NA
Total Size:1.53 GB
Info Hash:43f5a86a7dacdcaf308c8a49fd519b2ee57cc40c
Added By:DaScubaDude
Date Added:09-10-2019 06:28:24

  

Files

File List: 
 File Size
FASTER.theatrical.mp41.53 GB



Comments

There are currently no comments. Be the first one to write something !