Birds of Prey (and the Fantabulous Emancipation of One Harley Quinn) 2020 billions The King of Staten Island 2020 Hamilton 2020  warrior nun hindi 2020 Eurovision Song Contest The Story of Fire Saga 2020 Perry Mason s01e02 evo Warrior Nun S01E01 Big Dogs S01E01 365 Days 2020 Knives Out 2019 ddr The Outpost 2020 My Spy 2020 Hanna s02e02 Stargirl hanna Wwe  Alone S07E04 Lost Bullet 2020 Blindspot S05E08 Trolls World Tour 2020 Brazzers Best Of Brazzers Hanna s02e01 nos4a2 Hanna s02e04 trackers hamilton Bad Boys for Life 2020 Doom Patrol S02E04 f1 The Invisible Man 2020 Dark S01E01 Hanna s02e03 Hanna s02e05 yts Doom patrol the 100 Irresistible 2020 Artemis Fowl 2020 Greyhound 2020 Warrior Nun S01E03 etmovies ettv The Outpost Marvels Agents of S.H.I.E.L.D. S07E06 The 100 S07E07 Condor S02E05 Force of Nature 2020 ethd snowpiercer Doom Patrol s02e02 Xxx Doom Patrol s02e03 Warrior Nun S01E02 Scoob! 2020 hindi Condor BLINDSPOT rq.mp4 dark Doom Patrol s02e01 You Should Have Left 2020 formula 1 0 etrg 
Warning! Use a VPN When Downloading Torrents!
Your IP Address is 18.206.238.176. Location United States
Your Internet Provider can see when you download torrents! Hide your IP Address with a VPN
ETTV warns: You should use VPN to hide your torrenting. HIDE ME NOW
ETTV Recommended TV Shows
The.Bold.Type.S04E14.WEB.h264-TBS[ettv] torrent
The.Other.One.S01E03.HDTV.x264-MTB[ettv] torrent
NOS4A2.S02E03.720p.WEB.H264-OATH[ettv] torrent
Trackers.S01E05.WEB.H264-BTX[ettv] torrent
WWE Friday Night SmackDown 3rd July 2020 WEBRip h264-TJ [TJET] torrent
Parks.and.Recreation.S01.Season.1.Complete.1080p.NF.WEB.x264-maximersk [mrsktv] torrent

ETTV Recommended SD
The.Outpost.2020.HDRip.XviD.AC3-EVO[EtMovies] torrent
Money.Plane.2020.HDRip.XviD.AC3-EVO[EtMovies] torrent
Hamilton.2020.HDRip.XviD.AC3-EVO[EtMovies] torrent
Black.Magic.For.White.Boys.2017.HDRip.XviD.AC3-EVO[EtMovies] torrent

ETTV Recommended HD
The.Magnificent.Seven.2016.BRRip.1080p.HEVC.HDR.Eng.DD5.1.ETRG torrent
Mr. and Mrs. Smith 2005 Dir Cut BDRip 1080p AC3 x264-3Li torrent
Inception (2010) (1080p BluRay x265 HEVC 10bit HDR AAC 5.1 afm72) [QxR] torrent
Avatar (2009) [Sam Worthington] 1080p H264 DolbyD 5.1 ūüíé nickarad torrent

ETTV Recommended UHD
Escape.From.L.A.1996.4K.MULTi.2160p.HDR.WEBRip.TrueHD.5.1.HEVC-DDR.mkv torrent
INXS - Live Baby Live 1991 (2020).UHD.Bluray.2160p.HDR.Atmos.7.1.HEVC-DDR.mkv torrent
Tropic.Thunder.2008.MULTi.TC.2160p.HDR.WEBRip.DTS-HDMA.5.1.HEVC-DDR.mkv torrent
The.Magnificent.Seven.2016.BDRip.2160p.UHD.HDR.Eng.TrueHD.ETRG torrent
Playing.with.Fire.2019.4K.MULTI.2160p.HDR.WEBRip.DTS-HDMA.5.1.HEVC-DDR.mkv torrent
The.Last.Days.of.American.Crime.2020.4K.MULTI.2160p.HDR.WEBRip.DDP.5.1.HEVC-DDR.mkv torrent

ETTV Recommended Cam
The Hunt 2020 HDCAM x264 AC3-ETRG torrent
The Burnt Orange Heresy 2020 720p HDCAM-C1NEM4 torrent

ETTV Recommended Foreign
The Identical (2014) ITA-ENG Ac3 5.1 BDRip 1080p H264 [ArMor] torrent
Trolls World Tour (2020) [BluRay Rip 1080p ITA-ENG AC3 SUBS] [M@HD] torrent
Gran Torino (2008) AC3 5.1 ITA.ENG 1080p H265 sub NUita.eng Sp33dy94 MIRCrew torrent
The Fxxk-It List (2020) [English+Hindi - 720p - WEB HDRip - x264 - DD 5.1 - MSub - 2GB] - MAZE torrent
Jagga Jagravan Joga 2020.1080p.AMZN.WEB.DL.DD.2.0.AVC.Dus.IcTv torrent
City Hunter Private Eyes (2019) [Bluray 1080p AVC Ita-Jap - DTS-HD MA 5.1 - Ita subs] torrent

ETTV Recommended Music
David Bowie - Ouvrez Le Chien (Live Dallas 95) (2020) [320 KBPS]  torrent
Denai Moore - Modern Dread  Pop Album Mp3~(2020) [320]  kbps Beats‚≠ź torrent
[dream-pop, indie-folk] (2020) Suzanne Vallie - Love Lives Where Rules Die [FLAC] [DarkAngie] torrent
VA - 100 Hit Tracks The Ultimate Collection 80s (2020) Mp3 320kbps [PMEDIA] ‚≠źÔłŹ torrent


Download Torrent "11.22.63 (2016)Mp-4 X264 DVD-RIP AAC[DSD]"

IMDB Details
Description:

A high school teacher travels back in time to prevent John F. Kennedy's assassination.

Genre:

Drama, Mystery, Sci-Fi, Thriller

Download Torrent (Magnet)
Download Torrent (File)

Seeds: 20
Leechers: 14

Uploaded by:
DaScubaDude


Category:
TV > TV Packs


Details
Title:11.22.63 (2016)Mp-4 X264 DVD-RIP AAC[DSD]
Description:
Seedboxed!!




General

Complete name                            : 11_22_63_SEASON_1_.mp4

Format                                   : MPEG-4

Format profile                           : Base Media

Codec ID                                 : isom (isom/iso2/avc1/mp41)

File size                                : 2.18 GiB

Duration                                 : 3 h 54 min

Overall bit rate                         : 1 328 kb/s

Movie name                               : 11_22_63_SEASON_1_DISC_1

Genre                                    : Historical_Film

Writing application                      : Lavf54.6.100


Video

ID                                       : 1

Format                                   : AVC

Format/Info                              : Advanced Video Codec

Format profile¬† ¬† ¬† ¬† ¬† ¬† ¬† ¬† ¬† ¬† ¬† ¬† ¬† ¬†: [email protected]

Format settings                          : 6 Ref Frames

Format settings, CABAC                   : No

Format settings, RefFrames               : 6 frames

Codec ID                                 : avc1

Codec ID/Info                            : Advanced Video Coding

Duration                                 : 3 h 54 min

Bit rate                                 : 1 194 kb/s

Width                                    : 720 pixels

Height                                   : 404 pixels

Display aspect ratio                     : 16:9

Frame rate mode                          : Constant

Frame rate                               : 29.970 (30000/1001) FPS

Color space                              : YUV

Chroma subsampling                       : 4:2:0

Bit depth                                : 8 bits

Scan type                                : Progressive

Bits/(Pixel*Frame)                       : 0.137

Stream size                              : 1.96 GiB (90%)


Audio

ID                                       : 2

Format                                   : AAC

Format/Info                              : Advanced Audio Codec

Format profile                           : LC

Codec ID                                 : mp4a-40-2

Duration                                 : 3 h 54 min

Bit rate mode                            : Constant

Bit rate                                 : 128 kb/s

Channel(s)                               : 2 channels

Channel positions                        : Front: L R

Sampling rate                            : 44.1 kHz

Frame rate                               : 43.066 FPS (1024 SPF)

Compression mode                         : Lossy

Stream size                              : 215 MiB (10%)

Default                                  : Yes

Alternate group                          : 1


Category:TV > TV Packs
Lang:Unknown/NA
Total Size:4.06 GB
Info Hash:a874712fd523b95cb39887e82d8e033abe5ca0c3
Added By:DaScubaDude
Date Added:07-10-2019 22:12:50

  

Files

File List: 
 File Size
11_22_63_SEASON_1_DISC_1_Title1.mp42.18 GB
11_22_63_SEASON_1_DISC_2_Title1.mp41.88 GB



Comments

There are currently no comments. Be the first one to write something !