ettv Americas Got Talent S15E01 Grant S01E02 etrg 2160p etmovies WWE Locke  AlmostParadiseS01E09 Almost Paradise S01E09 Bad Boys for Life 2020 harley quinn Stargirl s01e02 legends of tomorrow ethd dc week rick and morty s04e09 rq.mp4 Aew American Dad s17e07 720p evo Killing Eve S03E07 Brazzers Best Of Brazzers XXX Capone 2020 Snowpiercer Penny Dreadful City of Angels S01E05 Ethd The Gentlemen 2020 stargirl Billions s05e04 720p The 100 DCs Legends of Tomorrow S05E14 ddr Survive the Night 2020 simpsons Dead Still s01e03 blindspot Birds of Prey (and the Fantabulous Emancipation of One Harley Quinn) 2020 yts outlander american dad Extraction 2020 rick and morty Snowpiercer S01E02 hindi Scoob! 2020 Below Deck Sailing Yacht S01E17 The Wrong Missy 2020 supergirl Snowpiercer S01E01 the flash batwoman ita legends of tomorrow s05e14 The Lovebirds 2020 defending jacob almost paradise killing eve BadBoysforLife2020 Inheritance 2020 Billions S05E04 American Dad s17e07 90 Day Fiance Before The 90 Days S04E14 0 billions Barkskins S01E01 BarkskinsS01E01 Grant S01E01 
Warning! Use a VPN When Downloading Torrents!
Your IP Address is 34.204.176.125. Location United States
Your Internet Provider can see when you download torrents! Hide your IP Address with a VPN
ETTV warns: You should use VPN to hide your torrenting. HIDE ME NOW
ETTV Recommended TV Shows
DCs.Legends.of.Tomorrow.S05E14.HDTV.x264-SVA[ettv] torrent
The.100.S07E02.HDTV.x264-SVA[ettv] torrent
Marvels.Agents.of.S.H.I.E.L.D.S07E01.HDTV.x264-SVA[ETTV] torrent
Transplant.S01E13.HDTV.x264-aAF[ettv] torrent

ETTV Recommended SD
Weathering with You.2020.BDRip.XviD.AC3-EVO torrent
Ouija.Shark.2020.HDRip.XviD.AC3-EVO torrent
Adventures.Of.Rufus.The.Fantastic.Pet.2020.HDRip.XviD.AC3-EVO torrent
Ron.Hoppers.Misfortune.2020.AMZN.HDRip.XViD.AC3-juggs torrent

ETTV Recommended HD
Ouija.Shark.2020.1080p.WEB-DL.AAC2.0.x264-CMRG[EtHD] torrent
Black.Hawk.Down.2001.BRRip.1080p.HEVC.HDR.Multi.DD5.1.ETRG torrent
Scoob.2020.1080p.WebRip.H264.AC3.DD5.1.Will1869[EtHD] torrent
Guest.Of.Honour.2020.HC.1080p.WEBRip.X264.DD.5.1-EVO[EtHD] torrent

ETTV Recommended UHD
The.Half.of.It.2020.2160p.NF.WEB-Rip.DDP5.1.HDR.HEVC-DDR[EtHD] torrent
The.Wrong.Missy.2020.UHD.MULTI.2160p.HDR.WEBRip.DDP.5.1.HEVC-DDR[EtHD] torrent
Black.Hawk.Down.2001.BDRip.2160p.UHD.HDR.Multi.TrueHD.ETRG torrent
Queen & Slim (2019) [BluRay Rip 2160p HEVC 10bit-HDR ITA-ENG DTS-AC3-SUBS] [M@HD] torrent

ETTV Recommended Cam
The Hunt 2020 HDCAM x264 AC3-ETRG torrent
The Burnt Orange Heresy 2020 720p HDCAM-C1NEM4 torrent

ETTV Recommended Foreign
Naan Mahaan Alla.2010.Blu-ray.1080p.DTS.5.1.HEVC.[fixed]-DDR.mkv torrent
Naukar.Vahuti.Da.2019.1080p.AMZN.WEB-DL.DD+5.1.x264-Telly[EtHD] torrent
Clash of the Titans - Scontro tra titani (2010) AC3 5.1 ITA.ENG 1080p H265 sub NUita.eng Sp33dy94 MIRCrew torrent
Raktanchal.S01.Repack.18+.2020.Hindi.1080p.MX.WEB-DL.AAC.2.0.H.264-Telly torrent

Sponsored


Download Torrent "Fist of the North Star (1986) (1080p BDRip x265 10bit AC3 2.0 - Goki)"

IMDB Details
Description:

A practitioner of the deadly martial art "Hokuto Shinken" allies with two children and an expert in "Nanto Suicho-Ken" to fight against the rivals who kidnapped his lover and threaten the prosperity of mankind.

Genre:

Animation, Action, Drama, Fantasy

Download Torrent (Magnet)
Download Torrent (File)
Seeds: 87
Leechers: 96
Completed: 240 
Last Checked: 07-10-2019 15:21:05


Details
Title:Fist of the North Star (1986) (1080p BDRip x265 10bit AC3 2.0 - Goki)
Description:


Media Information

Unique ID                                : 118613972475813460819008677392366371122 (0x593C385B2FA357D6F3DBF9BF2AFF0132)
Complete name                            : Fist of the North Star (1986) (1080p BDRip x265 10bit AC3 2.0 - Goki).mkv
Format                                   : Matroska
Format version                           : Version 4
File size                                : 13.5 GiB
Duration                                 : 1 h 52 min
Overall bit rate                         : 17.2 Mb/s
Movie name                               : Fist of the North Star (1986) (1080p BDRip x265 10bit AC3 2.0 - Goki).mkv
Encoded date                             : UTC 2019-10-07 13:48:19
Writing application                      : mkvmerge v28.2.0 ('The Awakening') 64-bit
Writing library                          : libebml v1.3.6 + libmatroska v1.4.9

Video
ID                                       : 1
Format                                   : HEVC
Format/Info                              : High Efficiency Video Coding
Format profile                           : Main [email protected]@Main
Codec ID                                 : V_MPEGH/ISO/HEVC
Duration                                 : 1 h 52 min
Bit rate                                 : 16.2 Mb/s
Width                                    : 1 920 pixels
Height                                   : 1 080 pixels
Display aspect ratio                     : 16:9
Frame rate mode                          : Constant
Frame rate                               : 23.976 (24000/1001) FPS
Color space                              : YUV
Chroma subsampling                       : 4:2:0
Bit depth                                : 10 bits
Bits/(Pixel*Frame)                       : 0.327
Stream size                              : 12.7 GiB (95%)
Writing library                          : x265 2.9+8-27d8424c799d:[Windows][MSVC 1915][64 bit] 10bit
Encoding settings                        : cpuid=1111039 / frame-threads=2 / numa-pools=6 / wpp / no-pmode / no-pme / no-psnr / no-ssim / log-level=2 / input-csp=1 / input-res=1920x1080 / interlace=0 / total-frames=0 / level-idc=0 / high-tier=1 / uhd-bd=0 / ref=4 / no-allow-non-conformance / no-repeat-headers / annexb / no-aud / no-hrd / info / hash=0 / no-temporal-layers / open-gop / min-keyint=23 / keyint=250 / gop-lookahead=0 / bframes=8 / b-adapt=2 / b-pyramid / bframe-bias=0 / rc-lookahead=100 / lookahead-slices=4 / scenecut=40 / radl=0 / no-intra-refresh / ctu=64 / min-cu-size=8 / no-rect / no-amp / max-tu-size=32 / tu-inter-depth=2 / tu-intra-depth=2 / limit-tu=4 / rdoq-level=2 / dynamic-rd=0.00 / no-ssim-rd / signhide / no-tskip / nr-intra=0 / nr-inter=0 / no-constrained-intra / no-strong-intra-smoothing / max-merge=3 / limit-refs=2 / limit-modes / me=3 / subme=5 / merange=57 / temporal-mvp / weightp / weightb / no-analyze-src-pics / deblock=0:0 / sao / no-sao-non-deblock / rd=6 / no-early-skip / rskip / no-fast-intra / no-tskip-fast / no-cu-lossless / b-intra / no-splitrd-skip / rdpenalty=0 / psy-rd=1.30 / psy-rdoq=2.00 / no-rd-refine / no-lossless / cbqpoffs=0 / crqpoffs=0 / rc=crf / crf=18.0 / qcomp=0.60 / qpstep=4 / stats-write=0 / stats-read=0 / ipratio=1.40 / pbratio=1.30 / aq-mode=2 / aq-strength=1.10 / cutree / zone-count=0 / no-strict-cbr / qg-size=32 / no-rc-grain / qpmax=69 / qpmin=0 / no-const-vbv / sar=1 / overscan=0 / videoformat=5 / range=0 / colorprim=2 / transfer=2 / colormatrix=2 / chromaloc=0 / display-window=0 / max-cll=0,0 / min-luma=0 / max-luma=1023 / log2-max-poc-lsb=8 / vui-timing-info / vui-hrd-info / slices=1 / no-opt-qp-pps / no-opt-ref-list-length-pps / no-multi-pass-opt-rps / scenecut-bias=0.05 / no-opt-cu-delta-qp / no-aq-motion / no-hdr / no-hdr-opt / no-dhdr10-opt / no-idr-recovery-sei / analysis-reuse-level=5 / scale-factor=0 / refine-intra=0 / refine-inter=0 / refine-mv=0 / no-limit-sao / ctu-info=0 / no-lowpass-dct / refine-mv-type=0 / copy-pic=1 / max-ausize-factor=1.0 / no-dynamic-refine / no-single-sei
Language                                 : English
Default                                  : Yes
Forced                                   : No

Audio #1
ID                                       : 2
Format                                   : AC-3
Format/Info                              : Audio Coding 3
Commercial name                          : Dolby Digital
Codec ID                                 : A_AC3
Duration                                 : 1 h 52 min
Bit rate mode                            : Constant
Bit rate                                 : 448 kb/s
Channel(s)                               : 2 channels
Channel layout                           : L R
Sampling rate                            : 48.0 kHz
Frame rate                               : 31.250 FPS (1536 SPF)
Compression mode                         : Lossy
Stream size                              : 360 MiB (3%)
Title                                    : Stereo
Language                                 : English
Service kind                             : Complete Main
Default                                  : Yes
Forced                                   : No

Audio #2
ID                                       : 3
Format                                   : AC-3
Format/Info                              : Audio Coding 3
Commercial name                          : Dolby Digital
Codec ID                                 : A_AC3
Duration                                 : 1 h 52 min
Bit rate mode                            : Constant
Bit rate                                 : 448 kb/s
Channel(s)                               : 2 channels
Channel layout                           : L R
Sampling rate                            : 48.0 kHz
Frame rate                               : 31.250 FPS (1536 SPF)
Compression mode                         : Lossy
Stream size                              : 360 MiB (3%)
Title                                    : Stereo
Language                                 : Japanese
Service kind                             : Complete Main
Default                                  : No
Forced                                   : No

Text #1
ID                                       : 4
Format                                   : PGS
Codec ID                                 : S_HDMV/PGS
Codec ID/Info                            : Picture based subtitle format used on BDs/HD-DVDs
Duration                                 : 1 h 50 min
Bit rate                                 : 23.7 kb/s
Count of elements                        : 1404
Stream size                              : 18.7 MiB (0%)
Language                                 : English
Default                                  : No
Forced                                   : No

Text #2
ID                                       : 5
Format                                   : PGS
Codec ID                                 : S_HDMV/PGS
Codec ID/Info                            : Picture based subtitle format used on BDs/HD-DVDs
Duration                                 : 1 h 50 min
Bit rate                                 : 1 842 b/s
Count of elements                        : 123
Stream size                              : 1.46 MiB (0%)
Language                                 : English
Default                                  : No
Forced                                   : No

Menu
00:00:00.000                             : en:Chapter 01
00:05:46.888                             : en:Chapter 02
00:20:42.741                             : en:Chapter 03
00:28:46.015                             : en:Chapter 04
00:44:34.338                             : en:Chapter 05
01:00:52.023                             : en:Chapter 06
01:09:14.984                             : en:Chapter 07
01:21:52.407                             : en:Chapter 08
01:29:04.213                             : en:Chapter 09
01:31:45.625                             : en:Chapter 10
01:40:51.336                             : en:Chapter 11
01:45:07.050                             : en:Chapter 12
01:50:24.451                             : en:Chapter 13
01:52:20.942                             : en:Chapter 14

Source Information

Unique ID                                : 162269608722400641527886729023553514957 (0x7A13FD66D3677C34E7C8C0AD326BADCD)
Complete name                            : Fist of the North Star The Movie.mkv
Format                                   : Matroska
Format version                           : Version 2
File size                                : 19.5 GiB
Duration                                 : 1 h 52 min
Overall bit rate mode                    : Variable
Overall bit rate                         : 24.8 Mb/s
Movie name                               : Fist of the North Star The Movie
Encoded date                             : UTC 2019-10-06 00:03:48
Writing application                      : MakeMKV v1.14.4 win(x64-release)
Writing library                          : libmakemkv v1.14.4 (1.3.5/1.4.7) win(x64-release)

Video
ID                                       : 1
ID in the original source medium         : 4113 (0x1011)
Format                                   : AVC
Format/Info                              : Advanced Video Codec
Format profile                           : [email protected]
Format settings                          : CABAC / 3 Ref Frames
Format settings, CABAC                   : Yes
Format settings, Reference frames        : 3 frames
Codec ID                                 : V_MPEG4/ISO/AVC
Duration                                 : 1 h 52 min
Bit rate mode                            : Variable
Bit rate                                 : 23.0 Mb/s
Maximum bit rate                         : 31.0 Mb/s
Width                                    : 1 920 pixels
Height                                   : 1 080 pixels
Display aspect ratio                     : 16:9
Frame rate mode                          : Constant
Frame rate                               : 23.976 (24000/1001) FPS
Color space                              : YUV
Chroma subsampling                       : 4:2:0
Bit depth                                : 8 bits
Scan type                                : Progressive
Bits/(Pixel*Frame)                       : 0.463
Stream size                              : 17.9 GiB (92%)
Writing library                          : x264 core 146 r2538 121396c
Encoding settings                        : cabac=1 / ref=4 / deblock=1:-1:-1 / analyse=0x3:0x133 / me=umh / subme=10 / psy=1 / psy_rd=1.00:0.15 / mixed_ref=1 / me_range=24 / chroma_me=1 / trellis=2 / 8x8dct=1 / cqm=0 / deadzone=21,11 / fast_pskip=1 / chroma_qp_offset=-3 / threads=6 / lookahead_threads=1 / sliced_threads=0 / slices=4 / nr=0 / decimate=1 / interlaced=0 / bluray_compat=1 / constrained_intra=0 / bframes=3 / b_pyramid=1 / b_adapt=2 / b_bias=0 / direct=3 / weightb=1 / open_gop=1 / weightp=1 / keyint=24 / keyint_min=1 / scenecut=40 / intra_refresh=0 / rc_lookahead=24 / rc=2pass / mbtree=1 / bitrate=23000 / ratetol=1.0 / qcomp=0.60 / qpmin=0 / qpmax=69 / qpstep=4 / cplxblur=20.0 / qblur=0.5 / vbv_maxrate=31000 / vbv_bufsize=30000 / nal_hrd=vbr / filler=0 / ip_ratio=1.40 / aq=1:1.00
Language                                 : English
Default                                  : No
Forced                                   : No
Color range                              : Limited
Color primaries                          : BT.709
Transfer characteristics                 : BT.709
Matrix coefficients                      : BT.709
Original source medium                   : Blu-ray

Audio #1
ID                                       : 2
ID in the original source medium         : 4352 (0x1100)
Format                                   : AC-3
Format/Info                              : Audio Coding 3
Commercial name                          : Dolby Digital
Codec ID                                 : A_AC3
Duration                                 : 1 h 52 min
Bit rate mode                            : Constant
Bit rate                                 : 448 kb/s
Channel(s)                               : 2 channels
Channel layout                           : L R
Sampling rate                            : 48.0 kHz
Frame rate                               : 31.250 FPS (1536 SPF)
Compression mode                         : Lossy
Stream size                              : 360 MiB (2%)
Title                                    : Stereo
Language                                 : English
Service kind                             : Complete Main
Default                                  : Yes
Forced                                   : No
Original source medium                   : Blu-ray

Audio #2
ID                                       : 3
ID in the original source medium         : 4353 (0x1101)
Format                                   : PCM
Format settings                          : Little / Signed
Codec ID                                 : A_PCM/INT/LIT
Duration                                 : 1 h 52 min
Bit rate mode                            : Constant
Bit rate                                 : 1 536 kb/s
Channel(s)                               : 2 channels
Sampling rate                            : 48.0 kHz
Frame rate                               : 30.000 FPS (1600 SPF)
Bit depth                                : 16 bits
Stream size                              : 1.21 GiB (6%)
Title                                    : Stereo
Language                                 : Japanese
Default                                  : No
Forced                                   : No
Original source medium                   : Blu-ray

Text #1
ID                                       : 4
ID in the original source medium         : 4608 (0x1200)
Format                                   : PGS
Codec ID                                 : S_HDMV/PGS
Codec ID/Info                            : Picture based subtitle format used on BDs/HD-DVDs
Duration                                 : 1 h 50 min
Bit rate                                 : 23.7 kb/s
Count of elements                        : 1404
Stream size                              : 18.7 MiB (0%)
Language                                 : English
Default                                  : No
Forced                                   : No
Original source medium                   : Blu-ray

Text #2
ID                                       : 6
ID in the original source medium         : 4609 (0x1201)
Format                                   : PGS
Codec ID                                 : S_HDMV/PGS
Codec ID/Info                            : Picture based subtitle format used on BDs/HD-DVDs
Duration                                 : 1 h 50 min
Bit rate                                 : 1 842 b/s
Count of elements                        : 123
Stream size                              : 1.46 MiB (0%)
Language                                 : English
Default                                  : No
Forced                                   : No
Original source medium                   : Blu-ray

Menu
00:00:00.000                             : en:Chapter 01
00:05:46.888                             : en:Chapter 02
00:20:42.741                             : en:Chapter 03
00:28:46.015                             : en:Chapter 04
00:44:34.338                             : en:Chapter 05
01:00:52.023                             : en:Chapter 06
01:09:14.984                             : en:Chapter 07
01:21:52.407                             : en:Chapter 08
01:29:04.213                             : en:Chapter 09
01:31:45.625                             : en:Chapter 10
01:40:51.336                             : en:Chapter 11
01:45:07.050                             : en:Chapter 12
01:50:24.451                             : en:Chapter 13
01:52:20.942                             : en:Chapter 14

.........................................................................................................................................

Category:Anime > Dubbed/Subbed
Lang:English  English
Total Size:13.47 GB
Info Hash:9b81bbbda1962b352eec8188558e350cd7fad413
Added By:Goki
Date Added:07-10-2019 15:21:01

Files

File List: 
 File Size
Fist of the North Star (1986) (1080p BDRip x265 10bit AC3 2.0 - Goki)-clearlogo.png54.45 kB
Fist of the North Star (1986) (1080p BDRip x265 10bit AC3 2.0 - Goki)-fanart.jpg507.27 kB
Fist of the North Star (1986) (1080p BDRip x265 10bit AC3 2.0 - Goki)-logo.png54.45 kB
Fist of the North Star (1986) (1080p BDRip x265 10bit AC3 2.0 - Goki)-poster.jpg116.93 kB
Fist of the North Star (1986) (1080p BDRip x265 10bit AC3 2.0 - Goki).mkv13.47 GB
Fist of the North Star (1986) (1080p BDRip x265 10bit AC3 2.0 - Goki).nfo5.95 kB



Comments

There are currently no comments. Be the first one to write something !