You Should Have Left 2020 Desperados 2020 dc week Deadliest Catch S16E13 hamilton Hanna Big Dogs S01E01 Hanna s02e02 Below Deck Mediterranean S05E06 billions ettv Eurovision Song Contest The Story of Fire Saga 2020 the 100 The 100 S07E07 Yellowstone S03E04 warrior nun evo Force of Nature 2020 etmovies Scoob! 2020 snowpiercer Yellowstone Greyhound 2020 Irresistible 2020 Perry Mason s01e03 Hanna s02e05 Yellowstone S03E03 Snowpiercer s01e08 90 Day Fiance The Other Way s02e06 Hanna s02e07 BLINDSPOT Trolls World Tour 2020 greenleaf Dirty John S02E07 The King of Staten Island 2020 0 yts ita Hanna s02e03 Stargirl S01E08 rq.mp4 Greenleaf S05E03 Hamilton 2020 Hanna s02e06 perry mason Seal Team Artemis Fowl 2020 stargirl Birds of Prey (and the Fantabulous Emancipation of One Harley Quinn) 2020 dark condor Hanna s02e04 Hanna s02e01 Perry Mason s01e02 The Outpost 2020 robot chicken Hanna s02e08 Wwe Xxx Chicago PD Warrior Nun S01E01 american dad hindi ddr Condor S02E06 doom patrol etrg ethd 
Warning! Use a VPN When Downloading Torrents!
Your IP Address is 3.235.74.77. Location United States
Your Internet Provider can see when you download torrents! Hide your IP Address with a VPN
ETTV warns: You should use VPN to hide your torrenting. HIDE ME NOW
ETTV Recommended TV Shows
Holby.City.S22E20.720p.HDTV.x264-ORGANiC[ettv] torrent
Greenleaf.S05E03.720p.WEBRip.x264-OATH[ettv] torrent
Yellowstone.2018.S03E03.1080p.HEVC.x265.MeGusta.ETRG torrent
The Rockford Files Season 1 Complete 720p BluRay x264 [i c] torrent
AEW DARK 7th July 2020 WEBRip h264-TJ [TJET] torrent
Homeland.S08E09.MULTi.720p.WEB.H264-CiELOS[ettv] torrent

ETTV Recommended SD
Above.Suspicion.2020.HDRip.XviD.AC3-EVO[EtMovies] torrent
Attraction.2.Invasion.2020.HDRip.XviD.AC3-EVO[EtMovies] torrent
Battlefield.2025.2020.HDRip.XviD.AC3-EVO[EtMovies] torrent
Babysplitters.2020.HDRip.XviD.AC3-EVO[EtMovies] torrent

ETTV Recommended HD
Mighty.Oak.2020.1080p.WEB-DL.H264.AC3-EVO[EtHD] torrent
Above.Suspicion.2020.1080p.WEB-DL.DD5.1.H.264-EVO[EtHD] torrent
Battlefield.2025.2020.1080p.AMZN.WEBRip.X264.DDP.2.0-EVO[EtHD] torrent
Lucky.Grandma.2019.1080p.WEB-DL.AAC.AVC-UNKNOWN[EtHD] torrent

ETTV Recommended UHD
Escape.From.L.A.1996.4K.MULTi.2160p.HDR.WEBRip.TrueHD.5.1.HEVC-DDR.mkv torrent
INXS - Live Baby Live 1991 (2020).UHD.Bluray.2160p.HDR.Atmos.7.1.HEVC-DDR.mkv torrent
Tropic.Thunder.2008.MULTi.TC.2160p.HDR.WEBRip.DTS-HDMA.5.1.HEVC-DDR.mkv torrent
Playing.with.Fire.2019.4K.MULTI.2160p.HDR.WEBRip.DTS-HDMA.5.1.HEVC-DDR.mkv torrent
The.Last.Days.of.American.Crime.2020.4K.MULTI.2160p.HDR.WEBRip.DDP.5.1.HEVC-DDR.mkv torrent
Onward - Oltre la magia (2020) [BluRay Rip 2160p HEVC 10bit-HDR ITA-ENG DD+AC3-SUBS] [M@HD] torrent

ETTV Recommended Cam
The Hunt 2020 HDCAM x264 AC3-ETRG torrent
The Burnt Orange Heresy 2020 720p HDCAM-C1NEM4 torrent

ETTV Recommended Foreign
Stateless (2020) S01 COMPLETE 720p NF WEB-DL x264 [Hin+Eng] - 2.4GB ESubs [MOVCR] torrent
Mrs.AndMr.Kohli.S01.2020.1080p.MX.Player.WEB-DL.AAC.2.0.x264-Telly torrent
King Solomon's Mine (1985).720p.H264.ita.eng.Ac3.sub.ita.eng-MIRCrew torrent
Kappela (2020) Malayalam (1080p WEBRip x265 HEVC 10bit AAC 5.1 Msubs) - [Musafirboy] torrent
Dora e la città perduta (2019) - H264 Eng Ita Fre Esp Ac3 5.1 MultiSub by SnakeSPL MIRCrew torrent
Strike of the Panther (1988) 720p BluRay x264 [Dual Audio] [Hindi DD 2.0 - English 2.0] Exclusive By -=!Dr.STAR!=- torrent

ETTV Recommended Music
Charlie Daniels - Tailgate Party (1999) [FLAC] vtwin88cube torrent
The Hot 100 (The week of July 4, 2020) Spotify (2020) [320]  kbps Beats⭐ torrent
[indie-rock] (2020) Mansions - Big Bad [FLAC] [DarkAngie] torrent
VA - New Music Releases Week 27 of 2020 (Mp3 320kbps Songs) [PMEDIA] ⭐️ torrent


Download Torrent "The Fast and the Furious: Tokyo Drift (2006)Mp-4 X264 1080p AAC[DSD]"

IMDB Details
Description:

A teenager becomes a major competitor in the world of drift racing after moving in with his father in Tokyo to avoid a jail sentence in America.

Genre:

Action, Crime, Thriller

Download Torrent (Magnet)
Download Torrent (File)

Seeds: 190
Leechers: 21

Uploaded by:
DaScubaDude


Category:
Movies > HD 1080p (Great for large screens)


Details
Title:The Fast and the Furious: Tokyo Drift (2006)Mp-4 X264 1080p AAC[DSD]
Description:
Seedboxed!!




General

Complete name                            : THE_FAST_AND_THE_FURIOUS_-_TOKYO_DRIFT.mp4

Format                                   : MPEG-4

Format profile                           : Base Media / Version 2

Codec ID                                 : mp42 (mp42/isom/avc1)

File size                                : 1.67 GiB

Duration                                 : 1 h 44 min

Overall bit rate mode                    : Variable

Overall bit rate                         : 2 292 kb/s

Movie name                               : The Fast and the Furious: Tokyo Drift

Performer                                : Justin Lin

Performer/Sorted by                      : Justin Lin

Genre                                    : Action & Crime & Drama & Thriller

Description                              : In order to avoid a jail sentence, Sean Boswell heads to Tokyo to live with his military father. In a low-rent section of the city, Shaun gets caught up in the underground world of drift racing

Encoded date                             : UTC 2019-09-22 04:08:10

Tagged date                              : UTC 2019-09-22 08:35:04

Writing application                      : DVDFab 11.0.5.1

Cover                                    : Yes

Title/Sort                               : The Fast and the Furious: Tokyo Drift

LongDescription                          : In order to avoid a jail sentence, Sean Boswell heads to Tokyo to live with his military father. In a low-rent section of the city, Shaun gets caught up in the underground world of drift racing


Video

ID                                       : 1

Format                                   : AVC

Format/Info                              : Advanced Video Codec

Format profile                           : [email protected]

Format settings                          : CABAC / 2 Ref Frames

Format settings, CABAC                   : Yes

Format settings, RefFrames               : 2 frames

Format settings, GOP                     : M=1, N=24

Codec ID                                 : avc1

Codec ID/Info                            : Advanced Video Coding

Duration                                 : 1 h 44 min

Bit rate mode                            : Variable

Bit rate                                 : 1 835 kb/s

Maximum bit rate                         : 2 818 kb/s

Width                                    : 1 920 pixels

Height                                   : 816 pixels

Display aspect ratio                     : 2.35:1

Frame rate mode                          : Constant

Frame rate                               : 23.976 (24000/1001) FPS

Color space                              : YUV

Chroma subsampling                       : 4:2:0

Bit depth                                : 8 bits

Scan type                                : Progressive

Bits/(Pixel*Frame)                       : 0.049

Stream size                              : 1.34 GiB (80%)

Encoded date                             : UTC 2019-09-22 04:08:10

Tagged date                              : UTC 2019-09-22 08:35:04

Color primaries                          : BT.709

Transfer characteristics                 : BT.709

Matrix coefficients                      : BT.709

Menus                                    : 4


Audio

ID                                       : 2

Format                                   : AAC

Format/Info                              : Advanced Audio Codec

Format profile                           : LC

Codec ID                                 : mp4a-40-2

Duration                                 : 1 h 44 min

Bit rate mode                            : Variable

Bit rate                                 : 448 kb/s

Maximum bit rate                         : 453 kb/s

Channel(s)                               : 6 channels

Channel positions                        : Front: L C R, Side: L R, LFE

Sampling rate                            : 48.0 kHz

Frame rate                               : 46.875 FPS (1024 SPF)

Compression mode                         : Lossy

Stream size                              : 334 MiB (20%)

Title                                    : English (aac 5.1)

Language                                 : English

Default                                  : Yes

Alternate group                          : 1

Encoded date                             : UTC 2019-09-22 04:08:10

Tagged date                              : UTC 2019-09-22 08:35:04


Text

ID                                       : 3

Format                                   : VobSub

Codec ID                                 : mp4s-E0

Codec ID/Info                            : The same subtitle format used on DVDs

Duration                                 : 1 h 42 min

Bit rate mode                            : Variable

Bit rate                                 : 5 940 b/s

Maximum bit rate                         : 4 249 Mb/s

Stream size                              : 4.36 MiB (0%)

Language                                 : English

Default                                  : Yes

Forced                                   : No

Alternate group                          : 2

Encoded date                             : UTC 2019-09-22 04:08:10


Tagged date                              : UTC 2019-09-22 08:31:56

Category:Movies > HD 1080p
Lang:English  English
Total Size:1.67 GB
Info Hash:039b48404c5bffd72a091c10af5bb3bfe7dccea3
Added By:DaScubaDude
Date Added:23-09-2019 00:19:21

  

Files

File List: 
 File Size
THE_FAST_AND_THE_FURIOUS_-_TOKYO_DRIFT.Title0.mp41.67 GB



Comments

There are currently no comments. Be the first one to write something !