American dad BarkskinsS01E03 seal team legends of tomorrow Chicago Med Space Force s01e04 Snowpiercer yts BrazzersBestOfBrazzers Vanderpump Rules S08E22 Rick and morty legends Law and Order SVU Space Force S01E01 The Secret of Skinwalker Ranch S01E08 Stargirl S01E03 Locke  Blindspot chicago fire  defending jacob Rick and Morty S04E10 DC Week ethd wwe killing eve s03e08 Space force etmovies Marvels Agents of S.H.I.E.L.D. S07E01 DCs Legends of Tomorrow S05E15 Americas Got Talent S15E02 Westworld Space Force s01e02 XXX the 100 ddr Ddr minx Last Week Tonight 2160p Snowpiercer S01E03 Dirty John S02E01 stargirl Billions  BillionsS05E05 killing eve The Blackout Invasion Earth 2019 Barkskins S01E03 Legends of Tomorrow s05e15 Brazzers Best Of Brazzers Billions S05E05 ettv Dirty John AlmostParadiseS01E10 Survive the Night 2020 evo Almost Paradise S01E10 Scoob! 2020 the flash The Hunt 2020 rq.mp4 hindi 2020 etrg Hindi Evo Penny Dreadful City of Angels S01E06 Blue Bloods s00e02 Ita Space Force s01e03 almost paradise 90 Day Fiance Before The 90 Days S04E15 
Warning! Use a VPN When Downloading Torrents!
Your IP Address is 3.231.220.225. Location United States
Your Internet Provider can see when you download torrents! Hide your IP Address with a VPN
ETTV warns: You should use VPN to hide your torrenting. HIDE ME NOW
ETTV Recommended TV Shows
Roswell.New.Mexico.S02E11.HDTV.x264-SVA[ettv] torrent
DCs.Legends.of.Tomorrow.S05E15.HDTV.x264-SVA[ettv] torrent
Dirty.John.S02E02.WEB.h264-TRUMP[ettv] torrent
The.Genetic.Detective.S01E02.WEB.h264-TBS[ettv] torrent

ETTV Recommended SD
Hang.Time.2019.HDRip.XviD.AC3-EVO torrent
Bernie.The.Dolphin.2.2019.BDRip.XviD.AC3-EVO torrent
Equal.Standard.2020.HDRip.XviD.AC3-EVO torrent
They.Reach.2020.BRRip.XviD.AC3-EVO torrent

ETTV Recommended HD
Hang.Time.2019.1080p.WEB-DL.H264.AC3-EVO[EtHD] torrent
A.Clear.Shot.2019.AMZN.WEB-DL.DDP5.1.H.264-CMRG[EtHD] torrent
Equal.Standard.2020.1080p.WEBRip.X264.DD.2.0-EVO[EtHD] torrent
Jupiter.Ascending.2015.BRRip.1080p.HEVC.HDR.Eng.DD5.1.ETRG torrent

ETTV Recommended UHD
Rush.2013.MULTi.UHD.2160p.HDR.DTS-HDMA.5.1.HEVC-DDR.mkv torrent
Last.Flag.Flying.2017.UHD.2160p.HDR.WebRip.DDP.5.1.HEVC-DDR.mkv torrent
Suicide.Squad.Hell.to.Pay.2018.MULTi.UHD.BluRay.2160p.HDR.DTS-HDMA.5.1.HEVC-DDR.mkv torrent
Jupiter.Ascending.2015.BDRip.2160p.UHD.HDR.Eng.TrueHD.ETRG torrent

ETTV Recommended Cam
The Hunt 2020 HDCAM x264 AC3-ETRG torrent
The Burnt Orange Heresy 2020 720p HDCAM-C1NEM4 torrent

ETTV Recommended Foreign
Ponmagal Vandhal (2020) [TAMIL - 720p - WEB HDRip - x264 - DD 5.1 - ESub - 2GB] - MAZE torrent
Like a Boss 2020 BluRay 1080p Hindi English AC3 5.1 x264 ESub - mkvCinemas [Telly].mkv torrent
Ek Villain (2014) Hindi (2160p Upscaled BluRay x265 HEVC 10bit DDP 5.1 ESub Chapters) - [Musafirboy] torrent
Kyaa Kool Hain Hum 3 (2016) Hindi - 720p WebRip - AAC 5.1 - ESubs - Sun George - DrC (Requested)- 13 Aniversary Release torrent

Sponsored


Download Torrent "The Fast and the Furious (2001)Mp-4 x264 1080p AAC[DSD]"

IMDB Details
Description:

Los Angeles police officer Brian O'Conner must decide where his loyalty really lies when he becomes enamored with the street racing world he has been sent undercover to destroy.

Genre:

Action, Crime, Thriller

Download Torrent (Magnet)
Download Torrent (File)
Seeds: 139
Leechers: 14
Completed: 546 
Last Checked: 19-09-2019 16:58:13


Details
Title:The Fast and the Furious (2001)Mp-4 x264 1080p AAC[DSD]
Description:
Seedboxed!




General

Complete name                            : THE_FAST_AND_THE_FURIOUS.mp4

Format                                   : MPEG-4

Format profile                           : Base Media / Version 2

Codec ID                                 : mp42 (mp42/isom/avc1)

File size                                : 1.72 GiB

Duration                                 : 1 h 46 min

Overall bit rate mode                    : Variable

Overall bit rate                         : 2 305 kb/s

Movie name                               : THE_FAST_AND_THE_FURIOUS.Title0

Performer                                : Rob Cohen

Performer/Sorted by                      : Rob Cohen

Genre                                    : Action & Crime & Thriller

Description                              : Domenic Toretto is a Los Angeles street racer suspected of masterminding a series of big-rig hijackings. When undercover cop Brian O'Conner infiltrates Toretto's iconoclastic crew, he falls for Toretto's sister and must choose a side: the gang or the LAPD.

Encoded date                             : UTC 2019-09-18 21:35:34

Tagged date                              : UTC 2019-09-19 04:13:12

Writing application                      : DVDFab 11.0.5.0

Cover                                    : Yes

Title/Sort                               : The Fast and the Furious

LongDescription                          : Domenic Toretto is a Los Angeles street racer suspected of masterminding a series of big-rig hijackings. When undercover cop Brian O'Conner infiltrates Toretto's iconoclastic crew, he falls for Toretto's sister and must choose a side: the gang or the LAPD.


Video

ID                                       : 1

Format                                   : AVC

Format/Info                              : Advanced Video Codec

Format profile                           : [email protected]

Format settings                          : CABAC / 2 Ref Frames

Format settings, CABAC                   : Yes

Format settings, RefFrames               : 2 frames

Format settings, GOP                     : M=1, N=24

Codec ID                                 : avc1

Codec ID/Info                            : Advanced Video Coding

Duration                                 : 1 h 46 min

Source duration                          : 1 h 46 min

Bit rate mode                            : Variable

Bit rate                                 : 1 846 kb/s

Maximum bit rate                         : 2 818 kb/s

Width                                    : 1 920 pixels

Height                                   : 816 pixels

Display aspect ratio                     : 2.35:1

Frame rate mode                          : Constant

Frame rate                               : 23.976 (24000/1001) FPS

Color space                              : YUV

Chroma subsampling                       : 4:2:0

Bit depth                                : 8 bits

Scan type                                : Progressive

Bits/(Pixel*Frame)                       : 0.049

Stream size                              : 1.38 GiB (80%)

Source stream size                       : 1.38 GiB (80%)

Encoded date                             : UTC 2019-09-18 21:35:34

Tagged date                              : UTC 2019-09-19 04:13:11

Color primaries                          : BT.709

Transfer characteristics                 : BT.709

Matrix coefficients                      : BT.709

Menus                                    : 4


Audio

ID                                       : 2

Format                                   : AAC

Format/Info                              : Advanced Audio Codec

Format profile                           : LC

Codec ID                                 : mp4a-40-2

Duration                                 : 1 h 46 min

Bit rate mode                            : Variable

Bit rate                                 : 448 kb/s

Maximum bit rate                         : 454 kb/s

Channel(s)                               : 6 channels

Channel positions                        : Front: L C R, Side: L R, LFE

Sampling rate                            : 48.0 kHz

Frame rate                               : 46.875 FPS (1024 SPF)

Compression mode                         : Lossy

Stream size                              : 343 MiB (19%)

Title                                    : English (aac 5.1)

Language                                 : English

Default                                  : Yes

Alternate group                          : 1

Encoded date                             : UTC 2019-09-18 21:35:34

Tagged date                              : UTC 2019-09-19 04:13:09


Text

ID                                       : 3

Format                                   : VobSub

Codec ID                                 : mp4s-E0

Codec ID/Info                            : The same subtitle format used on DVDs

Duration                                 : 1 h 46 min

Bit rate mode                            : Variable

Bit rate                                 : 7 603 b/s

Maximum bit rate                         : 4 249 Mb/s

Stream size                              : 5.80 MiB (0%)

Language                                 : English

Default                                  : Yes

Forced                                   : No

Alternate group                          : 2

Encoded date                             : UTC 2019-09-18 21:35:34


Tagged date                              : UTC 2019-09-19 04:12:04

Category:Movies > HD 1080p
Lang:English  English
Total Size:1.72 GB
Info Hash:60d50d8ef70ce3392728f901fa3bca8fc8fe291d
Added By:DaScubaDude
Date Added:19-09-2019 16:58:09

  

Files

File List: 
 File Size
THE_FAST_AND_THE_FURIOUS.Title0.mp41.72 GB



Comments

There are currently no comments. Be the first one to write something !