Perry Mason S01E01 Birds of Prey (and the Fantabulous Emancipation of One Harley Quinn) 2020 The 100 S07E07 Doom Patrol s02e01 Hamilton 2020 f1 billions Sonic the Hedgehog 2020 marvel week Dark S01E01 Alone S07E04 Doom Patrol s02e04 You Should Have Left 2020 yellowstone The Invisible Man 2020 Brazzers Best Of Brazzers Hanna S02E01 Condor S02E05 Artemis Fowl 2020 dc week The Challenge S35E14 The Real Housewives of New York City S12E12 dark Americas Got Talent S15E06 Stargirl s01e07 0 Marvels Agents of S.H.I.E.L.D. S07E06 Warrior Nun S01E02 Snowpiercer in the dark s02e12 Doom Patrol s02e02 365 Days 2020 Doom.Patrol ddr warrior nun s01e01  etmovies BlindSpot yts big bang theory español ethd Hindi Double Shot at Love S02E04 ettv Perry Mason s01e02 rq.mp4 Avengers Endgame 2019 Trolls World Tour 2020 Force of Nature 2020 The Outpost 2020 etrg evo Knives Out 2019 Blindspot S05E08 hanna Doom Patrol s02e03 Doom Patrol The King of Staten Island 2020 condor wwe stargirl Lost Bullet 2020 warrior nun s01e03 hamilton Irresistible 2020 Greyhound 2020 Xxx Yellowstone S03E02 The 100 warrior nun Eurovision Song Contest The Story of Fire Saga 2020 
Warning! Use a VPN When Downloading Torrents!
Your IP Address is 35.168.111.204. Location United States
Your Internet Provider can see when you download torrents! Hide your IP Address with a VPN
ETTV warns: You should use VPN to hide your torrenting. HIDE ME NOW
ETTV Recommended TV Shows
Council.of.Dads.S01E10.HDTV.x264-SVA[ettv] torrent
In.the.Dark.2019.S02E12.HDTV.x264-SVA[ettv] torrent
Blindspot.S05E08.HDTV.x264-SVA[ettv] torrent
The.Bold.Type.S04E14.WEB.h264-TBS[ettv] torrent
The.Twilight.Zone.S02.720p.x265-ZMNT torrent
Hanna - Season 2 - Mp4 x264 AC3 1080p torrent

ETTV Recommended SD
Desperados.2020.HDRip.XviD.AC3-EVO[EtMovies] torrent
Alone.Wolf.2020.HDRip.XviD.AC3-EVO[EtMovies] torrent
The.Outpost.2020.HDRip.XviD.AC3-EVO[EtMovies] torrent
Money.Plane.2020.HDRip.XviD.AC3-EVO[EtMovies] torrent

ETTV Recommended HD
Alone.Wolf.2020.1080p.WEB-DL.H264.AC3-EVO[EtHD] torrent
Money.Plane.2020.1080p.WEB-DL.DD5.1.H.264-EVO[EtHD] torrent
Desperados.2020.NF.WEB-DL.DD5.1.x264-CMRG[EtHD] torrent
The.Outpost.2020.1080p.WEB-DL.H264.AC3-EVO[EtHD] torrent

ETTV Recommended UHD
Escape.From.L.A.1996.4K.MULTi.2160p.HDR.WEBRip.TrueHD.5.1.HEVC-DDR.mkv torrent
INXS - Live Baby Live 1991 (2020).UHD.Bluray.2160p.HDR.Atmos.7.1.HEVC-DDR.mkv torrent
Tropic.Thunder.2008.MULTi.TC.2160p.HDR.WEBRip.DTS-HDMA.5.1.HEVC-DDR.mkv torrent
3.10.to.Yuma.2007.BDRip.2160p.UHD.HDR.Eng.DTS-HD.MA.ETRG torrent

ETTV Recommended Cam
The Hunt 2020 HDCAM x264 AC3-ETRG torrent
The Burnt Orange Heresy 2020 720p HDCAM-C1NEM4 torrent

ETTV Recommended Foreign
Canaries (2017) 720p WEBRip x264 Eng Subs [Dual Audio] [Hindi DD 2.0 - English 2.0] Exclusive By -=!Dr.STAR!=- torrent
Aadyaa.2020.1080p.SUNNXT.WEB-DL.AAC.2.0.x264-Telly torrent
Snowpiercer (2013) AC3 5.1 ITA.ENG 1080p H265 sub NUita.eng Sp33dy94 MIRCrew torrent
Four Kids and It (2020) BluRay  720p  [Hindi + Eng]  850MB[MB] torrent
Virgin Boys (2020) Hindi Part 1 720p ULLU WEB-DL x264 AAC 850MB - MovCr torrent
Pupa 2018.1080p.AMZN.WeB.DL.AVC.DDP.2.0.DusIcTv torrent

ETTV Recommended Music
Nirvana : Live At The Paramount [2011] 1080p BDRip x265 DTS-HD MA 5.1 Kira [SEV] torrent
Nirvana : MTV Unplugged In New York 1993 [2007] COMPLETE DVDRip x265 DTS 5.1 Kira [SEV] torrent
[art rock] (1977) Brian Eno - Before And After Science [FLAC] [DarkAngie] torrent
Gucci Mane - Gucci Mane Presents So Icy Summer (2020) Mp3 (320kbps) [Hunter] torrent
David Bowie - Ouvrez Le Chien (Live Dallas 95) (2020) [320 KBPS]  torrent
Denai Moore - Modern Dread  Pop Album Mp3~(2020) [320]  kbps Beats⭐ torrent


Download Torrent "Krypton S02E04 (1080p AMZN WEB-DL x265 HEVC 10bit AC3 5.1 Qman) [UTR]"

IMDB Details
Description:

N/A

Genre:

N/A

Download Torrent (Magnet)
Download Torrent (File)

Seeds: 256
Leechers: 58

Uploaded by:
UTR


Category:
TV > HEVC/x265 (Super High Quality, Small size, high CPU usage)


Details
Title:Krypton S02E04 (1080p AMZN WEB-DL x265 HEVC 10bit AC3 5.1 Qman) [UTR]
Description:







Media Information

Media Information
General
Format                                   : Matroska
Format version                           : Version 4 / Version 2
File size                                : 651 MiB
Duration                                 : 43 min 27 s
Overall bit rate                         : 2 094 kb/s
Encoded date                             : UTC 2019-07-05 22:50:39
Writing application                      : mkvmerge v30.1.0 ('Forever And More') 64-bit
Writing library                          : libebml v1.3.6 + libmatroska v1.4.9

Video
ID                                       : 1
Format                                   : HEVC
Format/Info                              : High Efficiency Video Coding
Format profile                           : Main [email protected]@Main
Codec ID                                 : V_MPEGH/ISO/HEVC
Duration                                 : 43 min 27 s
Bit rate                                 : 1 452 kb/s
Width                                    : 1 920 pixels
Height                                   : 1 080 pixels
Display aspect ratio                     : 16:9
Frame rate mode                          : Constant
Frame rate                               : 23.976 (24000/1001) FPS
Color space                              : YUV
Chroma subsampling                       : 4:2:0
Bit depth                                : 10 bits
Bits/(Pixel*Frame)                       : 0.029
Stream size                              : 451 MiB (69%)
Writing library                          : x265 3.0_Au+27-3f4fb9a2ac68:[Windows][MSVC 1920][64 bit] 10bit
Encoding settings                        : cpuid=1111039 / frame-threads=2 / numa-pools=4 / wpp / no-pmode / no-pme / no-psnr / no-ssim / log-level=2 / input-csp=1 / input-res=1920x1080 / interlace=0 / total-frames=62507 / level-idc=0 / high-tier=1 / uhd-bd=0 / ref=4 / no-allow-non-conformance / no-repeat-headers / annexb / no-aud / no-hrd / info / hash=0 / no-temporal-layers / open-gop / min-keyint=23 / keyint=250 / gop-lookahead=0 / bframes=8 / b-adapt=2 / b-pyramid / bframe-bias=0 / rc-lookahead=50 / lookahead-slices=4 / scenecut=40 / radl=0 / no-splice / no-intra-refresh / ctu=64 / min-cu-size=8 / no-rect / no-amp / max-tu-size=32 / tu-inter-depth=1 / tu-intra-depth=1 / limit-tu=0 / rdoq-level=2 / dynamic-rd=0.00 / no-ssim-rd / signhide / no-tskip / nr-intra=0 / nr-inter=0 / no-constrained-intra / no-strong-intra-smoothing / max-merge=3 / limit-refs=3 / limit-modes / me=3 / subme=3 / merange=57 / temporal-mvp / weightp / no-weightb / no-analyze-src-pics / deblock=1:1 / no-sao / no-sao-non-deblock / rd=4 / no-early-skip / no-rskip / no-fast-intra / no-tskip-fast / no-cu-lossless / no-b-intra / no-splitrd-skip / rdpenalty=0 / psy-rd=1.10 / psy-rdoq=1.00 / no-rd-refine / no-lossless / cbqpoffs=0 / crqpoffs=0 / rc=crf / crf=21.5 / qcomp=0.60 / qpstep=4 / stats-write=0 / stats-read=0 / ipratio=1.40 / pbratio=1.30 / aq-mode=3 / aq-strength=0.80 / cutree / zone-count=0 / no-strict-cbr / qg-size=32 / no-rc-grain / qpmax=69 / qpmin=0 / no-const-vbv / sar=0 / overscan=0 / videoformat=5 / range=0 / colorprim=2 / transfer=2 / colormatrix=2 / chromaloc=0 / display-window=0 / max-cll=0,0 / min-luma=0 / max-luma=1023 / log2-max-poc-lsb=8 / vui-timing-info / vui-hrd-info / slices=1 / no-opt-qp-pps / no-opt-ref-list-length-pps / no-multi-pass-opt-rps / scenecut-bias=0.05 / no-opt-cu-delta-qp / no-aq-motion / no-hdr / no-hdr-opt / no-dhdr10-opt / no-idr-recovery-sei / analysis-reuse-level=5 / scale-factor=0 / refine-intra=0 / refine-inter=0 / refine-mv=0 / refine-ctu-distortion=0 / no-limit-sao / ctu-info=0 / no-lowpass-dct / refine-analysis-type=0 / copy-pic=1 / max-ausize-factor=1.0 / no-dynamic-refine / no-single-sei / no-hevc-aq / no-svt / qp-adaptation-range=1.00
Language                                 : English
Default                                  : Yes
Forced                                   : No

Audio
ID                                       : 2
Format                                   : E-AC-3
Format/Info                              : Enhanced Audio Coding 3
Format settings, Endianness              : Big
Codec ID                                 : A_EAC3
Duration                                 : 43 min 27 s
Bit rate mode                            : Constant
Bit rate                                 : 640 kb/s
Channel(s)                               : 6 channels
Channel positions                        : Front: L C R, Side: L R, LFE
Sampling rate                            : 48.0 kHz
Frame rate                               : 187.500 FPS (256 spf)
Compression mode                         : Lossy
Stream size                              : 199 MiB (31%)
Language                                 : English
Default                                  : Yes
Forced                                   : No

Subtitle
ID                                       : 3
Format                                   : UTF-8
Codec ID                                 : S_TEXT/UTF8
Codec ID/Info                            : UTF-8 Plain Text
Duration                                 : 43 min 0 s
Bit rate                                 : 69 b/s
Count of elements                        : 726
Stream size                              : 22.0 KiB (0%)
Language                                 : English
Default                                  : Yes
Forced                                   : No



Source Information
Release:
Unknown Source/NO-GROUP



Category:TV > HEVC/x265
Lang:English  English
Total Size:651 MB
Info Hash:5b7bed63a59553e1affa96b1ec1a0f5ba293f64a
Added By:UTR
Date Added:06-07-2019 04:54:18

Files

File List: 
 File Size
Krypton.S02E04.1080p.AMZN.WEB-DL.x265.10bit.EAC3.6.0-Qman[UTR].mkv651 MB



Comments

There are currently no comments. Be the first one to write something !