Greys Anatomy Brazzers Best Of Brazzers Americas Got Talent S15E02 Westworld Last Week Tonight The Blackout Invasion Earth 2019 agents arrow español the 100 s07e03 ita aew  Billions S05E05 alex rider The Challenge S35E10 big bang theory español Chicago Med The Secret of Skinwalker Ranch S01E08 Hindi snowpiercer wwe Killing Eve agents of Snowpiercer S01E03 hindi dubbed the flash Marvels Agents of S.H.I.E.L.D. S07E02 The Hunt 2020 space force the 100 ethd etrg billions The Real Housewives of Beverly Hills S10E08 Dirty John S02E01 Chicago Fire 2160p HINDI 2020 Legends of Tomorrow Agents of SHIELD Blindspot ettv the challenge Space Force s01e02 ddr DCs Legends of Tomorrow S05E15 DC Week Survive the Night 2020 Seal Team Rick and Morty S04E10 Marvel Week XXX rick and morty minx Stargirl What We Do in the Shadows S02E09 Stargirl S01E03 rq.mp4 evo what we do in the shadows locke and key s01e06 american dad Scoob! 2020 Marvels Agents of S.H.I.E.L.D. S07E01 Deadliest Catch S16E08 yts game of thrones Space Force S01E01 dirty john etmovies 
Warning! Use a VPN When Downloading Torrents!
Your IP Address is 18.232.38.214. Location United States
Your Internet Provider can see when you download torrents! Hide your IP Address with a VPN
ETTV warns: You should use VPN to hide your torrenting. HIDE ME NOW
ETTV Recommended TV Shows
What.We.Do.in.the.Shadows.S02E09.HDTV.x264-CROOKS[ettv] torrent
Marvels.Agents.of.S.H.I.E.L.D.S07E02.HDTV.x264-SVA[ettv] torrent
AEW Dynamite 2020 06 03 HDTV x264-NWCHD [TJET] torrent
The.100.S07E03.WEB.H264-ALiGN[ettv] torrent

ETTV Recommended SD
Equal.Standard.2020.HDRip.XviD.AC3-EVO torrent
They.Reach.2020.BRRip.XviD.AC3-EVO torrent
Acrylic.2020.HDRip.XviD.AC3-EVO torrent
Think.Like.a.Dog.2020.BDRip.XviD.AC3-EVO torrent

ETTV Recommended HD
The.Wrong.Cheerleader.2019.HDTV.x264.LifeTime-Dbaum.ETRG torrent
The.Shining.1980.BRRip.1080p.HEVC.HDR.Eng.DD5.1.ETRG torrent
Acrylic.2020.1080p.WEBRip.X264.DD.5.1-EVO[EtHD] torrent
The Hunt 2020 BluRay 1080p DTSHD 7.1 x264-LEGi0N[EtHD] torrent

ETTV Recommended UHD
Rush.2013.MULTi.UHD.2160p.HDR.DTS-HDMA.5.1.HEVC-DDR.mkv torrent
Last.Flag.Flying.2017.UHD.2160p.HDR.WebRip.DDP.5.1.HEVC-DDR.mkv torrent
Suicide.Squad.Hell.to.Pay.2018.MULTi.UHD.BluRay.2160p.HDR.DTS-HDMA.5.1.HEVC-DDR.mkv torrent
The.Shining.1980.BDRip.2160p.UHD.HDR.Eng.DTS-HD.MA.ETRG torrent

ETTV Recommended Cam
The Hunt 2020 HDCAM x264 AC3-ETRG torrent
The Burnt Orange Heresy 2020 720p HDCAM-C1NEM4 torrent

ETTV Recommended Foreign
Villmark Asylum (2015) UNRATED 720p BluRay x264 Eng Subs [Dual Audio] [Hindi DD 2.0 - Norwegian 2.0] Exclusive By -=!Dr.STAR!=- torrent
Dhamaka.2020.1080p.AMZN.WEB-DL.DD+5.1.x264-Telly torrent
Cherokee Creek (2018) HDRip 720p [Hindi-Dub] Dual-Audio x264 torrent
Happy End (1999) (1080p BluRay x265 HEVC 10bit AAC 5.1 Korean Kappa) [QxR] torrent
Crawl 2019 720p BluRay Hindi English x264 AAC 5.1 MSubs - LOKiHD - Telly torrent
Torden.2020.NORWEGIAN.1080p.WEB.H264-WASTE[EtHD] torrent

Sponsored


Download Torrent "Aquaman 2018 1080p BDrip x265 7.1 TrueHD Atmos D0ct0rLew[SEV]"

IMDB Details
Description:

Arthur Curry, the human-born heir to the underwater kingdom of Atlantis, goes on a quest to prevent a war between the worlds of ocean and land.

Genre:

Action, Adventure, Fantasy, Sci-Fi

Download Torrent (Magnet)
Download Torrent (File)
Seeds: 82
Leechers: 118
Completed: 570 
Last Checked: 13-05-2019 22:07:18


Details
Title:Aquaman 2018 1080p BDrip x265 7.1 TrueHD Atmos D0ct0rLew[SEV]
Description:



Screenshots
Source


Encode


Media Information

Unique ID                                : 276087267007946921209581702649112825980 (0xCFB47935F33CD7AD13304DC1D58A107C)
Complete name                            :Aquaman 2018 1080p BDrip  x265 7.1 TrueHD Atmos D0ct0rLew[SEV].mkv
Format                                   : Matroska
Format version                           : Version 4
File size                                : 12.6 GiB
Duration                                 : 2 h 23 min
Overall bit rate mode                    : Variable
Overall bit rate                         : 12.6 Mb/s
Movie name                               : Aquaman (2018)
Encoded date                             : UTC 2019-05-13 05:07:11
Writing application                      : mkvmerge v29.0.0 ('Like It Or Not') 64-bit
Writing library                          : libebml v1.3.6 + libmatroska v1.4.9

Video
ID                                       : 2
Format                                   : HEVC
Format/Info                              : High Efficiency Video Coding
Format profile                           : Main [email protected]@Main
Codec ID                                 : V_MPEGH/ISO/HEVC
Duration                                 : 2 h 23 min
Bit rate                                 : 8 862 kb/s
Width                                    : 1 920 pixels
Height                                   : 1 080 pixels
Display aspect ratio                     : 16:9
Frame rate mode                          : Constant
Frame rate                               : 23.976 (24000/1001) FPS
Color space                              : YUV
Chroma subsampling                       : 4:2:0
Bit depth                                : 10 bits
Bits/(Pixel*Frame)                       : 0.178
Stream size                              : 8.87 GiB (70%)
Writing library                          : x265 3.0_Au+14-c7e5878bdd31:[Windows][MSVC 1920][64 bit] 10bit
Encoding settings                        : cpuid=1111039 / frame-threads=3 / numa-pools=8 / wpp / no-pmode / no-pme / no-psnr / no-ssim / log-level=2 / input-csp=1 / input-res=1920x1080 / interlace=0 / total-frames=206220 / level-idc=0 / high-tier=1 / uhd-bd=0 / ref=5 / no-allow-non-conformance / no-repeat-headers / annexb / no-aud / no-hrd / info / hash=0 / no-temporal-layers / open-gop / min-keyint=23 / keyint=250 / gop-lookahead=0 / bframes=16 / b-adapt=2 / b-pyramid / bframe-bias=0 / rc-lookahead=90 / lookahead-slices=0 / scenecut=40 / radl=0 / no-splice / no-intra-refresh / ctu=64 / min-cu-size=8 / rect / amp / max-tu-size=32 / tu-inter-depth=4 / tu-intra-depth=4 / limit-tu=4 / rdoq-level=2 / dynamic-rd=0.00 / no-ssim-rd / signhide / no-tskip / nr-intra=0 / nr-inter=0 / no-constrained-intra / strong-intra-smoothing / max-merge=4 / limit-refs=1 / no-limit-modes / me=3 / subme=7 / merange=92 / temporal-mvp / weightp / weightb / no-analyze-src-pics / deblock=3:3 / sao / no-sao-non-deblock / rd=5 / no-early-skip / rskip / no-fast-intra / no-tskip-fast / no-cu-lossless / b-intra / no-splitrd-skip / rdpenalty=0 / psy-rd=1.00 / psy-rdoq=1.00 / no-rd-refine / no-lossless / cbqpoffs=0 / crqpoffs=0 / rc=crf / crf=19.3 / qcomp=0.60 / qpstep=4 / stats-write=0 / stats-read=0 / ipratio=1.40 / pbratio=1.30 / aq-mode=3 / aq-strength=1.00 / cutree / zone-count=0 / no-strict-cbr / qg-size=32 / no-rc-grain / qpmax=69 / qpmin=0 / no-const-vbv / sar=0 / overscan=0 / videoformat=5 / range=0 / colorprim=2 / transfer=2 / colormatrix=2 / chromaloc=0 / display-window=0 / max-cll=0,0 / min-luma=0 / max-luma=1023 / log2-max-poc-lsb=8 / vui-timing-info / vui-hrd-info / slices=1 / no-opt-qp-pps / no-opt-ref-list-length-pps / no-multi-pass-opt-rps / scenecut-bias=0.05 / no-opt-cu-delta-qp / no-aq-motion / no-hdr / no-hdr-opt / no-dhdr10-opt / no-idr-recovery-sei / analysis-reuse-level=5 / scale-factor=0 / refine-intra=0 / refine-inter=0 / refine-mv=0 / refine-ctu-distortion=0 / no-limit-sao / ctu-info=0 / no-lowpass-dct / refine-analysis-type=0 / copy-pic=1 / max-ausize-factor=1.0 / no-dynamic-refine / no-single-sei / no-hevc-aq / no-svt / qp-adaptation-range=1.00
Default                                  : Yes
Forced                                   : No

Audio
ID                                       : 33
Format                                   : MLP FBA 16-ch
Format/Info                              : Meridian Lossless Packing FBA with 16-channel presentation
Commercial name                          : Dolby TrueHD with Dolby Atmos
Codec ID                                 : A_TRUEHD
Duration                                 : 2 h 23 min
Bit rate mode                            : Variable
Bit rate                                 : 3 579 kb/s
Maximum bit rate                         : 6 144 kb/s
Channel(s)                               : 8 channels
Channel layout                           : L R C LFE Ls Rs Lb Rb
Sampling rate                            : 48.0 kHz
Frame rate                               : 1 200.000 FPS (40 SPF)
Compression mode                         : Lossless
Stream size                              : 3.58 GiB (28%)
Title                                    : Dolby Atmos/TrueHD Audio / 7.1-Atmos / 48 kHz / 3579 kbps / 24-bit
Language                                 : English
Default                                  : Yes
Forced                                   : No
Number of dynamic objects                : 15
Bed channel count                        : 1 channel
Bed channel configuration                : LFE

Text #1
ID                                       : 1
Format                                   : UTF-8
Codec ID                                 : S_TEXT/UTF8
Codec ID/Info                            : UTF-8 Plain Text
Duration                                 : 2 h 15 min
Bit rate                                 : 47 b/s
Count of elements                        : 1533
Stream size                              : 46.6 KiB (0%)
Language                                 : English
Default                                  : Yes
Forced                                   : No

Text #2
ID                                       : 3
Format                                   : PGS
Muxing mode                              : zlib
Codec ID                                 : S_HDMV/PGS
Codec ID/Info                            : Picture based subtitle format used on BDs/HD-DVDs
Duration                                 : 2 h 14 min
Bit rate                                 : 37.7 kb/s
Count of elements                        : 4276
Stream size                              : 36.3 MiB (0%)
Language                                 : Japanese
Default                                  : No
Forced                                   : No

Text #3
ID                                       : 4
Format                                   : VobSub
Muxing mode                              : zlib
Codec ID                                 : S_VOBSUB
Codec ID/Info                            : Picture based subtitle format used on DVDs
Duration                                 : 2 h 22 min
Bit rate                                 : 2 308 b/s
Count of elements                        : 888
Stream size                              : 2.35 MiB (0%)
Language                                 : Danish
Default                                  : No
Forced                                   : No

Text #4
ID                                       : 5
Format                                   : VobSub
Muxing mode                              : zlib
Codec ID                                 : S_VOBSUB
Codec ID/Info                            : Picture based subtitle format used on DVDs
Duration                                 : 2 h 22 min
Bit rate                                 : 2 167 b/s
Count of elements                        : 1121
Stream size                              : 2.20 MiB (0%)
Language                                 : Czech
Default                                  : No
Forced                                   : No

Text #5
ID                                       : 6
Format                                   : VobSub
Muxing mode                              : zlib
Codec ID                                 : S_VOBSUB
Codec ID/Info                            : Picture based subtitle format used on DVDs
Duration                                 : 2 h 22 min
Bit rate                                 : 2 350 b/s
Count of elements                        : 1125
Stream size                              : 2.39 MiB (0%)
Language                                 : Croatian
Default                                  : No
Forced                                   : No

Text #6
ID                                       : 7
Format                                   : VobSub
Muxing mode                              : zlib
Codec ID                                 : S_VOBSUB
Codec ID/Info                            : Picture based subtitle format used on DVDs
Duration                                 : 2 h 22 min
Bit rate                                 : 2 135 b/s
Count of elements                        : 1058
Stream size                              : 2.17 MiB (0%)
Language                                 : Chinese
Default                                  : No
Forced                                   : No

Text #7
ID                                       : 8
Format                                   : VobSub
Muxing mode                              : zlib
Codec ID                                 : S_VOBSUB
Codec ID/Info                            : Picture based subtitle format used on DVDs
Duration                                 : 2 h 22 min
Bit rate                                 : 2 513 b/s
Count of elements                        : 1348
Stream size                              : 2.56 MiB (0%)
Language                                 : Chinese
Default                                  : No
Forced                                   : No

Text #8
ID                                       : 9
Format                                   : VobSub
Muxing mode                              : zlib
Codec ID                                 : S_VOBSUB
Codec ID/Info                            : Picture based subtitle format used on DVDs
Duration                                 : 2 h 22 min
Bit rate                                 : 2 231 b/s
Count of elements                        : 1132
Stream size                              : 2.27 MiB (0%)
Language                                 : Bulgarian
Default                                  : No
Forced                                   : No

Text #9
ID                                       : 10
Format                                   : VobSub
Muxing mode                              : zlib
Codec ID                                 : S_VOBSUB
Codec ID/Info                            : Picture based subtitle format used on DVDs
Duration                                 : 2 h 22 min
Bit rate                                 : 1 288 b/s
Count of elements                        : 1131
Stream size                              : 1.31 MiB (0%)
Language                                 : Arabic
Default                                  : No
Forced                                   : No

Text #10
ID                                       : 11
Format                                   : VobSub
Muxing mode                              : zlib
Codec ID                                 : S_VOBSUB
Codec ID/Info                            : Picture based subtitle format used on DVDs
Duration                                 : 2 h 22 min
Bit rate                                 : 2 439 b/s
Count of elements                        : 1126
Stream size                              : 2.48 MiB (0%)
Language                                 : Turkish
Default                                  : No
Forced                                   : No

Text #11
ID                                       : 12
Format                                   : VobSub
Muxing mode                              : zlib
Codec ID                                 : S_VOBSUB
Codec ID/Info                            : Picture based subtitle format used on DVDs
Duration                                 : 2 h 22 min
Bit rate                                 : 2 335 b/s
Count of elements                        : 1123
Stream size                              : 2.38 MiB (0%)
Language                                 : Thai
Default                                  : No
Forced                                   : No

Text #12
ID                                       : 13
Format                                   : VobSub
Muxing mode                              : zlib
Codec ID                                 : S_VOBSUB
Codec ID/Info                            : Picture based subtitle format used on DVDs
Duration                                 : 2 h 22 min
Bit rate                                 : 2 316 b/s
Count of elements                        : 1117
Stream size                              : 2.36 MiB (0%)
Language                                 : Swedish
Default                                  : No
Forced                                   : No

Text #13
ID                                       : 14
Format                                   : VobSub
Muxing mode                              : zlib
Codec ID                                 : S_VOBSUB
Codec ID/Info                            : Picture based subtitle format used on DVDs
Duration                                 : 2 h 22 min
Bit rate                                 : 2 313 b/s
Count of elements                        : 1129
Stream size                              : 2.35 MiB (0%)
Language                                 : Spanish
Default                                  : No
Forced                                   : No

Text #14
ID                                       : 15
Format                                   : VobSub
Muxing mode                              : zlib
Codec ID                                 : S_VOBSUB
Codec ID/Info                            : Picture based subtitle format used on DVDs
Duration                                 : 2 h 22 min
Bit rate                                 : 2 377 b/s
Count of elements                        : 1149
Stream size                              : 2.42 MiB (0%)
Language                                 : Spanish
Default                                  : No
Forced                                   : No

Text #15
ID                                       : 16
Format                                   : VobSub
Muxing mode                              : zlib
Codec ID                                 : S_VOBSUB
Codec ID/Info                            : Picture based subtitle format used on DVDs
Duration                                 : 2 h 22 min
Bit rate                                 : 2 049 b/s
Count of elements                        : 1019
Stream size                              : 2.09 MiB (0%)
Language                                 : Slovenian
Default                                  : No
Forced                                   : No

Text #16
ID                                       : 17
Format                                   : VobSub
Muxing mode                              : zlib
Codec ID                                 : S_VOBSUB
Codec ID/Info                            : Picture based subtitle format used on DVDs
Duration                                 : 2 h 22 min
Bit rate                                 : 2 248 b/s
Count of elements                        : 1120
Stream size                              : 2.29 MiB (0%)
Language                                 : Russian
Default                                  : No
Forced                                   : No

Text #17
ID                                       : 18
Format                                   : VobSub
Muxing mode                              : zlib
Codec ID                                 : S_VOBSUB
Codec ID/Info                            : Picture based subtitle format used on DVDs
Duration                                 : 2 h 22 min
Bit rate                                 : 2 351 b/s
Count of elements                        : 1123
Stream size                              : 2.39 MiB (0%)
Language                                 : Portuguese
Default                                  : No
Forced                                   : No

Text #18
ID                                       : 19
Format                                   : VobSub
Muxing mode                              : zlib
Codec ID                                 : S_VOBSUB
Codec ID/Info                            : Picture based subtitle format used on DVDs
Duration                                 : 2 h 22 min
Bit rate                                 : 2 344 b/s
Count of elements                        : 1126
Stream size                              : 2.39 MiB (0%)
Language                                 : Portuguese
Default                                  : No
Forced                                   : No

Text #19
ID                                       : 20
Format                                   : VobSub
Muxing mode                              : zlib
Codec ID                                 : S_VOBSUB
Codec ID/Info                            : Picture based subtitle format used on DVDs
Duration                                 : 2 h 22 min
Bit rate                                 : 2 270 b/s
Count of elements                        : 1121
Stream size                              : 2.31 MiB (0%)
Language                                 : Romanian
Default                                  : No
Forced                                   : No

Text #20
ID                                       : 21
Format                                   : VobSub
Muxing mode                              : zlib
Codec ID                                 : S_VOBSUB
Codec ID/Info                            : Picture based subtitle format used on DVDs
Duration                                 : 2 h 22 min
Bit rate                                 : 2 087 b/s
Count of elements                        : 1119
Stream size                              : 2.12 MiB (0%)
Language                                 : Polish
Default                                  : No
Forced                                   : No

Text #21
ID                                       : 22
Format                                   : VobSub
Muxing mode                              : zlib
Codec ID                                 : S_VOBSUB
Codec ID/Info                            : Picture based subtitle format used on DVDs
Duration                                 : 2 h 22 min
Bit rate                                 : 2 253 b/s
Count of elements                        : 997
Stream size                              : 2.29 MiB (0%)
Language                                 : Norwegian
Default                                  : No
Forced                                   : No

Text #22
ID                                       : 23
Format                                   : VobSub
Muxing mode                              : zlib
Codec ID                                 : S_VOBSUB
Codec ID/Info                            : Picture based subtitle format used on DVDs
Duration                                 : 2 h 22 min
Bit rate                                 : 2 282 b/s
Count of elements                        : 1130
Stream size                              : 2.32 MiB (0%)
Language                                 : Lithuanian
Default                                  : No
Forced                                   : No

Text #23
ID                                       : 24
Format                                   : VobSub
Muxing mode                              : zlib
Codec ID                                 : S_VOBSUB
Codec ID/Info                            : Picture based subtitle format used on DVDs
Duration                                 : 2 h 22 min
Bit rate                                 : 2 160 b/s
Count of elements                        : 1130
Stream size                              : 2.20 MiB (0%)
Language                                 : Latvian
Default                                  : No
Forced                                   : No

Text #24
ID                                       : 25
Format                                   : VobSub
Muxing mode                              : zlib
Codec ID                                 : S_VOBSUB
Codec ID/Info                            : Picture based subtitle format used on DVDs
Duration                                 : 2 h 22 min
Bit rate                                 : 1 635 b/s
Count of elements                        : 1131
Stream size                              : 1.66 MiB (0%)
Language                                 : Korean
Default                                  : No
Forced                                   : No

Text #25
ID                                       : 26
Format                                   : VobSub
Muxing mode                              : zlib
Codec ID                                 : S_VOBSUB
Codec ID/Info                            : Picture based subtitle format used on DVDs
Duration                                 : 2 h 15 min
Bit rate                                 : 3 158 b/s
Count of elements                        : 1486
Stream size                              : 3.05 MiB (0%)
Language                                 : Italian
Default                                  : No
Forced                                   : No

Text #26
ID                                       : 27
Format                                   : VobSub
Muxing mode                              : zlib
Codec ID                                 : S_VOBSUB
Codec ID/Info                            : Picture based subtitle format used on DVDs
Duration                                 : 2 h 22 min
Bit rate                                 : 2 403 b/s
Count of elements                        : 1115
Stream size                              : 2.45 MiB (0%)
Language                                 : Hungarian
Default                                  : No
Forced                                   : No

Text #27
ID                                       : 28
Format                                   : VobSub
Muxing mode                              : zlib
Codec ID                                 : S_VOBSUB
Codec ID/Info                            : Picture based subtitle format used on DVDs
Duration                                 : 2 h 22 min
Bit rate                                 : 1 918 b/s
Count of elements                        : 1131
Stream size                              : 1.95 MiB (0%)
Language                                 : Hebrew
Default                                  : No
Forced                                   : No

Text #28
ID                                       : 29
Format                                   : VobSub
Muxing mode                              : zlib
Codec ID                                 : S_VOBSUB
Codec ID/Info                            : Picture based subtitle format used on DVDs
Duration                                 : 2 h 22 min
Bit rate                                 : 2 480 b/s
Count of elements                        : 1118
Stream size                              : 2.53 MiB (0%)
Language                                 : Greek
Default                                  : No
Forced                                   : No

Text #29
ID                                       : 30
Format                                   : VobSub
Muxing mode                              : zlib
Codec ID                                 : S_VOBSUB
Codec ID/Info                            : Picture based subtitle format used on DVDs
Duration                                 : 2 h 22 min
Bit rate                                 : 2 091 b/s
Count of elements                        : 1206
Stream size                              : 2.13 MiB (0%)
Language                                 : French
Default                                  : No
Forced                                   : No

Text #30
ID                                       : 31
Format                                   : VobSub
Muxing mode                              : zlib
Codec ID                                 : S_VOBSUB
Codec ID/Info                            : Picture based subtitle format used on DVDs
Duration                                 : 2 h 22 min
Bit rate                                 : 2 164 b/s
Count of elements                        : 1118
Stream size                              : 2.20 MiB (0%)
Language                                 : Finnish
Default                                  : No
Forced                                   : No

Text #31
ID                                       : 32
Format                                   : VobSub
Muxing mode                              : zlib
Codec ID                                 : S_VOBSUB
Codec ID/Info                            : Picture based subtitle format used on DVDs
Duration                                 : 2 h 22 min
Bit rate                                 : 2 465 b/s
Count of elements                        : 1126
Stream size                              : 2.51 MiB (0%)
Language                                 : Estonian
Default                                  : No
Forced                                   : No

Menu
00:00:00.000                             : en:Chapter 1
00:11:09.294                             : en:Chapter 2
00:22:11.622                             : en:Chapter 3
00:30:11.018                             : en:Chapter 4
00:40:28.718                             : en:Chapter 5
00:50:24.647                             : en:Chapter 6
01:01:15.755                             : en:Chapter 7
01:08:57.091                             : en:Chapter 8
01:21:41.271                             : en:Chapter 9
01:34:50.435                             : en:Chapter 10
01:39:37.430                             : en:Chapter 11
01:49:32.816                             : en:Chapter 12
02:01:36.539                             : en:Chapter 13
02:10:19.895                             : en:Chapter 14

Source Media Information

Unique ID                                : 117319356007594853911353267515234665998 (0x5842E2D614E109E02A373B1F563B460E)
Complete name                            : Aquaman.2018.1080p.BluRay.REMUX.AVC.Atmos-EPSiLON.mkv
Format                                   : Matroska
Format version                           : Version 4
File size                                : 27.1 GiB
Duration                                 : 2 h 23 min
Overall bit rate mode                    : Variable
Overall bit rate                         : 27.1 Mb/s
Movie name                               : Aquaman (2018)
Encoded date                             : UTC 2019-03-18 18:32:41
Writing application                      : mkvmerge v32.0.0 ('Astral Progressions') 64-bit
Writing library                          : libebml v1.3.7 + libmatroska v1.5.0
IMDB                                     : tt1477834
TMDB                                     : movie/297802

Video
ID                                       : 1
Format                                   : AVC
Format/Info                              : Advanced Video Codec
Format profile                           : [email protected]
Format settings                          : CABAC / 2 Ref Frames
Format settings, CABAC                   : Yes
Format settings, RefFrames               : 2 frames
Codec ID                                 : V_MPEG4/ISO/AVC
Duration                                 : 2 h 23 min
Bit rate mode                            : Variable
Bit rate                                 : 22.3 Mb/s
Width                                    : 1 920 pixels
Height                                   : 1 080 pixels
Display aspect ratio                     : 16:9
Frame rate mode                          : Constant
Frame rate                               : 23.976 (24000/1001) FPS
Color space                              : YUV
Chroma subsampling                       : 4:2:0
Bit depth                                : 8 bits
Scan type                                : Progressive
Bits/(Pixel*Frame)                       : 0.448
Stream size                              : 22.3 GiB (82%)
Title                                    : MPEG-4 AVC Video / 22267 kbps / 1080p / 23.976 fps / 16:9 / High Profile 4.1
Language                                 : English
Default                                  : Yes
Forced                                   : No

Audio #1
ID                                       : 2
Format                                   : MLP FBA 16-ch
Format/Info                              : Meridian Lossless Packing FBA with 16-channel presentation
Commercial name                          : Dolby TrueHD with Dolby Atmos
Codec ID                                 : A_TRUEHD
Duration                                 : 2 h 23 min
Bit rate mode                            : Variable
Bit rate                                 : 3 579 kb/s
Maximum bit rate                         : 6 144 kb/s
Channel(s)                               : 8 channels
Channel layout                           : L R C LFE Ls Rs Lb Rb
Sampling rate                            : 48.0 kHz
Frame rate                               : 1 200.000 FPS (40 SPF)
Compression mode                         : Lossless
Stream size                              : 3.58 GiB (13%)
Title                                    : Dolby Atmos/TrueHD Audio / 7.1-Atmos / 48 kHz / 3579 kbps / 24-bit
Language                                 : English
Default                                  : Yes
Forced                                   : No
Number of dynamic objects                : 15
Bed channel count                        : 1 channel
Bed channel configuration                : LFE

Audio #2
ID                                       : 3
Format                                   : AC-3
Format/Info                              : Audio Coding 3
Commercial name                          : Dolby Digital
Codec ID                                 : A_AC3
Duration                                 : 2 h 23 min
Bit rate mode                            : Constant
Bit rate                                 : 448 kb/s
Channel(s)                               : 6 channels
Channel layout                           : L R C LFE Ls Rs
Sampling rate                            : 48.0 kHz
Frame rate                               : 31.250 FPS (1536 SPF)
Bit depth                                : 16 bits
Compression mode                         : Lossy
Stream size                              : 459 MiB (2%)
Title                                    : Compatibility Track / Dolby Digital Audio / 5.1-EX / 48 kHz / 448 kbps
Language                                 : English
Service kind                             : Complete Main
Default                                  : No
Forced                                   : No

Text #1
ID                                       : 4
Format                                   : PGS
Codec ID                                 : S_HDMV/PGS
Codec ID/Info                            : Picture based subtitle format used on BDs/HD-DVDs
Duration                                 : 2 h 22 min
Bit rate                                 : 25.8 kb/s
Count of elements                        : 2940
Stream size                              : 26.4 MiB (0%)
Title                                    : SDH
Language                                 : English
Default                                  : No
Forced                                   : No

Text #2
ID                                       : 5
Format                                   : PGS
Codec ID                                 : S_HDMV/PGS
Codec ID/Info                            : Picture based subtitle format used on BDs/HD-DVDs
Duration                                 : 2 h 22 min
Bit rate                                 : 11.4 kb/s
Count of elements                        : 2262
Stream size                              : 11.6 MiB (0%)
Language                                 : Arabic
Default                                  : No
Forced                                   : No

Text #3
ID                                       : 6
Format                                   : PGS
Codec ID                                 : S_HDMV/PGS
Codec ID/Info                            : Picture based subtitle format used on BDs/HD-DVDs
Duration                                 : 2 h 22 min
Bit rate                                 : 20.2 kb/s
Count of elements                        : 2264
Stream size                              : 20.6 MiB (0%)
Language                                 : Bulgarian
Default                                  : No
Forced                                   : No

Text #4
ID                                       : 7
Format                                   : PGS
Codec ID                                 : S_HDMV/PGS
Codec ID/Info                            : Picture based subtitle format used on BDs/HD-DVDs
Duration                                 : 2 h 22 min
Bit rate                                 : 19.4 kb/s
Count of elements                        : 2256
Stream size                              : 19.7 MiB (0%)
Title                                    : Cantonese
Language                                 : Chinese
Default                                  : No
Forced                                   : No

Text #5
ID                                       : 8
Format                                   : PGS
Codec ID                                 : S_HDMV/PGS
Codec ID/Info                            : Picture based subtitle format used on BDs/HD-DVDs
Duration                                 : 2 h 22 min
Bit rate                                 : 23.9 kb/s
Count of elements                        : 2696
Stream size                              : 24.3 MiB (0%)
Title                                    : Mandarin Simplified
Language                                 : Chinese
Default                                  : No
Forced                                   : No

Text #6
ID                                       : 9
Format                                   : PGS
Codec ID                                 : S_HDMV/PGS
Codec ID/Info                            : Picture based subtitle format used on BDs/HD-DVDs
Duration                                 : 2 h 22 min
Bit rate                                 : 24.0 kb/s
Count of elements                        : 2116
Stream size                              : 24.5 MiB (0%)
Title                                    : Mandarin Traditional
Language                                 : Chinese
Default                                  : No
Forced                                   : No

Text #7
ID                                       : 10
Format                                   : PGS
Codec ID                                 : S_HDMV/PGS
Codec ID/Info                            : Picture based subtitle format used on BDs/HD-DVDs
Duration                                 : 2 h 22 min
Bit rate                                 : 21.4 kb/s
Count of elements                        : 2250
Stream size                              : 21.8 MiB (0%)
Language                                 : Croatian
Default                                  : No
Forced                                   : No

Text #8
ID                                       : 11
Format                                   : PGS
Codec ID                                 : S_HDMV/PGS
Codec ID/Info                            : Picture based subtitle format used on BDs/HD-DVDs
Duration                                 : 2 h 22 min
Bit rate                                 : 19.7 kb/s
Count of elements                        : 2242
Stream size                              : 20.0 MiB (0%)
Language                                 : Czech
Default                                  : No
Forced                                   : No

Text #9
ID                                       : 12
Format                                   : PGS
Codec ID                                 : S_HDMV/PGS
Codec ID/Info                            : Picture based subtitle format used on BDs/HD-DVDs
Duration                                 : 2 h 22 min
Bit rate                                 : 23.6 kb/s
Count of elements                        : 1776
Stream size                              : 24.0 MiB (0%)
Language                                 : Danish
Default                                  : No
Forced                                   : No

Text #10
ID                                       : 13
Format                                   : PGS
Codec ID                                 : S_HDMV/PGS
Codec ID/Info                            : Picture based subtitle format used on BDs/HD-DVDs
Duration                                 : 2 h 22 min
Bit rate                                 : 22.5 kb/s
Count of elements                        : 2252
Stream size                              : 22.9 MiB (0%)
Language                                 : Estonian
Default                                  : No
Forced                                   : No

Text #11
ID                                       : 14
Format                                   : PGS
Codec ID                                 : S_HDMV/PGS
Codec ID/Info                            : Picture based subtitle format used on BDs/HD-DVDs
Duration                                 : 2 h 22 min
Bit rate                                 : 22.2 kb/s
Count of elements                        : 2236
Stream size                              : 22.6 MiB (0%)
Language                                 : Finnish
Default                                  : No
Forced                                   : No

Text #12
ID                                       : 15
Format                                   : PGS
Codec ID                                 : S_HDMV/PGS
Codec ID/Info                            : Picture based subtitle format used on BDs/HD-DVDs
Duration                                 : 2 h 22 min
Bit rate                                 : 19.1 kb/s
Count of elements                        : 2412
Stream size                              : 19.4 MiB (0%)
Language                                 : French
Default                                  : No
Forced                                   : No

Text #13
ID                                       : 16
Format                                   : PGS
Codec ID                                 : S_HDMV/PGS
Codec ID/Info                            : Picture based subtitle format used on BDs/HD-DVDs
Duration                                 : 2 h 22 min
Bit rate                                 : 22.4 kb/s
Count of elements                        : 2236
Stream size                              : 22.8 MiB (0%)
Language                                 : Greek
Default                                  : No
Forced                                   : No

Text #14
ID                                       : 17
Format                                   : PGS
Codec ID                                 : S_HDMV/PGS
Codec ID/Info                            : Picture based subtitle format used on BDs/HD-DVDs
Duration                                 : 2 h 22 min
Bit rate                                 : 17.2 kb/s
Count of elements                        : 2262
Stream size                              : 17.5 MiB (0%)
Language                                 : Hebrew
Default                                  : No
Forced                                   : No

Text #15
ID                                       : 18
Format                                   : PGS
Codec ID                                 : S_HDMV/PGS
Codec ID/Info                            : Picture based subtitle format used on BDs/HD-DVDs
Duration                                 : 2 h 22 min
Bit rate                                 : 21.9 kb/s
Count of elements                        : 2230
Stream size                              : 22.3 MiB (0%)
Language                                 : Hungarian
Default                                  : No
Forced                                   : No

Text #16
ID                                       : 19
Format                                   : PGS
Codec ID                                 : S_HDMV/PGS
Codec ID/Info                            : Picture based subtitle format used on BDs/HD-DVDs
Duration                                 : 2 h 15 min
Bit rate                                 : 31.8 kb/s
Count of elements                        : 2972
Stream size                              : 30.7 MiB (0%)
Title                                    : SDH
Language                                 : Italian
Default                                  : No
Forced                                   : No

Text #17
ID                                       : 20
Format                                   : PGS
Codec ID                                 : S_HDMV/PGS
Codec ID/Info                            : Picture based subtitle format used on BDs/HD-DVDs
Duration                                 : 2 h 14 min
Bit rate                                 : 37.7 kb/s
Count of elements                        : 4276
Stream size                              : 36.3 MiB (0%)
Language                                 : Japanese
Default                                  : No
Forced                                   : No

Text #18
ID                                       : 21
Format                                   : PGS
Codec ID                                 : S_HDMV/PGS
Codec ID/Info                            : Picture based subtitle format used on BDs/HD-DVDs
Duration                                 : 2 h 22 min
Bit rate                                 : 14.5 kb/s
Count of elements                        : 2262
Stream size                              : 14.7 MiB (0%)
Language                                 : Korean
Default                                  : No
Forced                                   : No

Text #19
ID                                       : 22
Format                                   : PGS
Codec ID                                 : S_HDMV/PGS
Codec ID/Info                            : Picture based subtitle format used on BDs/HD-DVDs
Duration                                 : 2 h 22 min
Bit rate                                 : 19.7 kb/s
Count of elements                        : 2260
Stream size                              : 20.1 MiB (0%)
Language                                 : Latvian
Default                                  : No
Forced                                   : No

Text #20
ID                                       : 23
Format                                   : PGS
Codec ID                                 : S_HDMV/PGS
Codec ID/Info                            : Picture based subtitle format used on BDs/HD-DVDs
Duration                                 : 2 h 22 min
Bit rate                                 : 20.8 kb/s
Count of elements                        : 2260
Stream size                              : 21.2 MiB (0%)
Language                                 : Lithuanian
Default                                  : No
Forced                                   : No

Text #21
ID                                       : 24
Format                                   : PGS
Codec ID                                 : S_HDMV/PGS
Codec ID/Info                            : Picture based subtitle format used on BDs/HD-DVDs
Duration                                 : 2 h 22 min
Bit rate                                 : 23.2 kb/s
Count of elements                        : 1994
Stream size                              : 23.6 MiB (0%)
Language                                 : Norwegian
Default                                  : No
Forced                                   : No

Text #22
ID                                       : 25
Format                                   : PGS
Codec ID                                 : S_HDMV/PGS
Codec ID/Info                            : Picture based subtitle format used on BDs/HD-DVDs
Duration                                 : 2 h 22 min
Bit rate                                 : 19.2 kb/s
Count of elements                        : 2238
Stream size                              : 19.5 MiB (0%)
Language                                 : Polish
Default                                  : No
Forced                                   : No

Text #23
ID                                       : 26
Format                                   : PGS
Codec ID                                 : S_HDMV/PGS
Codec ID/Info                            : Picture based subtitle format used on BDs/HD-DVDs
Duration                                 : 2 h 22 min
Bit rate                                 : 21.5 kb/s
Count of elements                        : 2252
Stream size                              : 21.9 MiB (0%)
Title                                    : Brazilian
Language                                 : Portuguese
Default                                  : No
Forced                                   : No

Text #24
ID                                       : 27
Format                                   : PGS
Codec ID                                 : S_HDMV/PGS
Codec ID/Info                            : Picture based subtitle format used on BDs/HD-DVDs
Duration                                 : 2 h 22 min
Bit rate                                 : 21.5 kb/s
Count of elements                        : 2246
Stream size                              : 21.9 MiB (0%)
Title                                    : Iberian
Language                                 : Portuguese
Default                                  : No
Forced                                   : No

Text #25
ID                                       : 28
Format                                   : PGS
Codec ID                                 : S_HDMV/PGS
Codec ID/Info                            : Picture based subtitle format used on BDs/HD-DVDs
Duration                                 : 2 h 22 min
Bit rate                                 : 20.7 kb/s
Count of elements                        : 2242
Stream size                              : 21.0 MiB (0%)
Language                                 : Romanian
Default                                  : No
Forced                                   : No

Text #26
ID                                       : 29
Format                                   : PGS
Codec ID                                 : S_HDMV/PGS
Codec ID/Info                            : Picture based subtitle format used on BDs/HD-DVDs
Duration                                 : 2 h 22 min
Bit rate                                 : 20.3 kb/s
Count of elements                        : 2240
Stream size                              : 20.7 MiB (0%)
Language                                 : Russian
Default                                  : No
Forced                                   : No

Text #27
ID                                       : 30
Format                                   : PGS
Codec ID                                 : S_HDMV/PGS
Codec ID/Info                            : Picture based subtitle format used on BDs/HD-DVDs
Duration                                 : 2 h 22 min
Bit rate                                 : 18.6 kb/s
Count of elements                        : 2038
Stream size                              : 18.9 MiB (0%)
Language                                 : Slovenian
Default                                  : No
Forced                                   : No

Text #28
ID                                       : 31
Format                                   : PGS
Codec ID                                 : S_HDMV/PGS
Codec ID/Info                            : Picture based subtitle format used on BDs/HD-DVDs
Duration                                 : 2 h 22 min
Bit rate                                 : 24.5 kb/s
Count of elements                        : 2298
Stream size                              : 24.9 MiB (0%)
Title                                    : Castilian
Language                                 : Spanish
Default                                  : No
Forced                                   : No

Text #29
ID                                       : 32
Format                                   : PGS
Codec ID                                 : S_HDMV/PGS
Codec ID/Info                            : Picture based subtitle format used on BDs/HD-DVDs
Duration                                 : 2 h 22 min
Bit rate                                 : 21.1 kb/s
Count of elements                        : 2258
Stream size                              : 21.5 MiB (0%)
Title                                    : Latin American
Language                                 : Spanish
Default                                  : No
Forced                                   : No

Text #30
ID                                       : 33
Format                                   : PGS
Codec ID                                 : S_HDMV/PGS
Codec ID/Info                            : Picture based subtitle format used on BDs/HD-DVDs
Duration                                 : 2 h 22 min
Bit rate                                 : 23.8 kb/s
Count of elements                        : 2234
Stream size                              : 24.2 MiB (0%)
Language                                 : Swedish
Default                                  : No
Forced                                   : No

Text #31
ID                                       : 34
Format                                   : PGS
Codec ID                                 : S_HDMV/PGS
Codec ID/Info                            : Picture based subtitle format used on BDs/HD-DVDs
Duration                                 : 2 h 22 min
Bit rate                                 : 23.6 kb/s
Count of elements                        : 2246
Stream size                              : 24.0 MiB (0%)
Language                                 : Thai
Default                                  : No
Forced                                   : No

Text #32
ID                                       : 35
Format                                   : PGS
Codec ID                                 : S_HDMV/PGS
Codec ID/Info                            : Picture based subtitle format used on BDs/HD-DVDs
Duration                                 : 2 h 22 min
Bit rate                                 : 25.0 kb/s
Count of elements                        : 2252
Stream size                              : 25.4 MiB (0%)
Language                                 : Turkish
Default                                  : No
Forced                                   : No

Menu
00:00:00.000                             : en:Chapter 1
00:11:09.294                             : en:Chapter 2
00:22:11.622                             : en:Chapter 3
00:30:11.018                             : en:Chapter 4
00:40:28.718                             : en:Chapter 5
00:50:24.647                             : en:Chapter 6
01:01:15.755                             : en:Chapter 7
01:08:57.091                             : en:Chapter 8
01:21:41.271                             : en:Chapter 9
01:34:50.435                             : en:Chapter 10
01:39:37.430                             : en:Chapter 11
01:49:32.816                             : en:Chapter 12
02:01:36.539                             : en:Chapter 13
02:10:19.895                             : en:Chapter 14

We have no issue with individuals posting or re-uploading our torrents on a platform we aren't on. However, if this is something you'd like to do, please do so in a 'as-is' format. We ask that you do not create a new torrent, include all descriptions you see above including the SEV logo, tags, notes and screenshots. If you'd like to become a permanent poster on a website we don't post to, feel free to get in contact with a Sublime Encoded Video  member.


We are recruiting/training new members for SEV & seedbox providers as well as people to help out with subtitles.
As you already know, we deliver quality, so you know the standard.
If you're interested, feel free to contact any of the team members.
Category:Movies > HEVC/x265
Lang:English  English
Total Size:12.59 GB
Info Hash:c91527b35c5b454abfafa7b7f4aae5e4bce46b8f
Added By:D0ct0rLew
Date Added:13-05-2019 22:07:15

  

Files

File List: 
 File Size
Aquaman 2018 1080p BDrip x265 7.1 TrueHD Atmos D0ct0rLew[SEV].mkv12.59 GB



Comments

There are currently no comments. Be the first one to write something !