ettv Americas Got Talent S15E01 Grant S01E02 etrg 2160p etmovies WWE Locke  AlmostParadiseS01E09 Almost Paradise S01E09 Bad Boys for Life 2020 harley quinn Stargirl s01e02 legends of tomorrow ethd dc week rick and morty s04e09 rq.mp4 Aew American Dad s17e07 720p evo Killing Eve S03E07 Brazzers Best Of Brazzers XXX Capone 2020 Snowpiercer Penny Dreadful City of Angels S01E05 Ethd The Gentlemen 2020 stargirl Billions s05e04 720p The 100 DCs Legends of Tomorrow S05E14 ddr Survive the Night 2020 simpsons Dead Still s01e03 blindspot Birds of Prey (and the Fantabulous Emancipation of One Harley Quinn) 2020 yts outlander american dad Extraction 2020 rick and morty Snowpiercer S01E02 hindi Scoob! 2020 Below Deck Sailing Yacht S01E17 The Wrong Missy 2020 supergirl Snowpiercer S01E01 the flash batwoman ita legends of tomorrow s05e14 The Lovebirds 2020 defending jacob almost paradise killing eve BadBoysforLife2020 Inheritance 2020 Billions S05E04 American Dad s17e07 90 Day Fiance Before The 90 Days S04E14 0 billions Barkskins S01E01 BarkskinsS01E01 Grant S01E01 
Warning! Use a VPN When Downloading Torrents!
Your IP Address is 34.204.176.125. Location United States
Your Internet Provider can see when you download torrents! Hide your IP Address with a VPN
ETTV warns: You should use VPN to hide your torrenting. HIDE ME NOW
ETTV Recommended TV Shows
DCs.Legends.of.Tomorrow.S05E14.HDTV.x264-SVA[ettv] torrent
The.100.S07E02.HDTV.x264-SVA[ettv] torrent
Marvels.Agents.of.S.H.I.E.L.D.S07E01.HDTV.x264-SVA[ETTV] torrent
Transplant.S01E13.HDTV.x264-aAF[ettv] torrent

ETTV Recommended SD
Weathering with You.2020.BDRip.XviD.AC3-EVO torrent
Ouija.Shark.2020.HDRip.XviD.AC3-EVO torrent
Adventures.Of.Rufus.The.Fantastic.Pet.2020.HDRip.XviD.AC3-EVO torrent
Ron.Hoppers.Misfortune.2020.AMZN.HDRip.XViD.AC3-juggs torrent

ETTV Recommended HD
Ouija.Shark.2020.1080p.WEB-DL.AAC2.0.x264-CMRG[EtHD] torrent
Black.Hawk.Down.2001.BRRip.1080p.HEVC.HDR.Multi.DD5.1.ETRG torrent
Scoob.2020.1080p.WebRip.H264.AC3.DD5.1.Will1869[EtHD] torrent
Guest.Of.Honour.2020.HC.1080p.WEBRip.X264.DD.5.1-EVO[EtHD] torrent

ETTV Recommended UHD
The.Half.of.It.2020.2160p.NF.WEB-Rip.DDP5.1.HDR.HEVC-DDR[EtHD] torrent
The.Wrong.Missy.2020.UHD.MULTI.2160p.HDR.WEBRip.DDP.5.1.HEVC-DDR[EtHD] torrent
Black.Hawk.Down.2001.BDRip.2160p.UHD.HDR.Multi.TrueHD.ETRG torrent
Queen & Slim (2019) [BluRay Rip 2160p HEVC 10bit-HDR ITA-ENG DTS-AC3-SUBS] [M@HD] torrent

ETTV Recommended Cam
The Hunt 2020 HDCAM x264 AC3-ETRG torrent
The Burnt Orange Heresy 2020 720p HDCAM-C1NEM4 torrent

ETTV Recommended Foreign
Naan Mahaan Alla.2010.Blu-ray.1080p.DTS.5.1.HEVC.[fixed]-DDR.mkv torrent
Naukar.Vahuti.Da.2019.1080p.AMZN.WEB-DL.DD+5.1.x264-Telly[EtHD] torrent
Clash of the Titans - Scontro tra titani (2010) AC3 5.1 ITA.ENG 1080p H265 sub NUita.eng Sp33dy94 MIRCrew torrent
Raktanchal.S01.Repack.18+.2020.Hindi.1080p.MX.WEB-DL.AAC.2.0.H.264-Telly torrent

Sponsored


Download Torrent "Game of Thrones S08E04 + Featurettes (1080p AMZN WEB-DL x265 HEVC 10bit AAC..."

IMDB Details
Description:

N/A

Genre:

N/A

Download Torrent (Magnet)
Download Torrent (File)
Seeds: 1,296
Leechers: 552
Completed: 7,889 
Last Checked: 06-05-2019 17:34:53


Details
Title:Game of Thrones S08E04 + Featurettes (1080p AMZN WEB-DL x265 HEVC 10bit AAC...
Description:


Includes the season 8 featurettes up to this point.
Future episodes from Joy will include only the new featurettes released after this upload.

Media Information
General
Format                                   : Matroska
Format version                           : Version 4 / Version 2
File size                                : 779 MiB
Duration                                 : 1 h 18 min
Overall bit rate                         : 1 380 kb/s
Encoded date                             : UTC 2019-05-06 11:42:27
Writing application                      : mkvmerge v24.0.0 ('Beyond The Pale') 64-bit
Writing library                          : libebml v1.3.6 + libmatroska v1.4.9
Writing frontend                         : StaxRip v1.8.2.0

Video
ID                                       : 1
Format                                   : HEVC
Format/Info                              : High Efficiency Video Coding
Format profile                           : Main [email protected]@Main
Codec ID                                 : V_MPEGH/ISO/HEVC
Duration                                 : 1 h 18 min
Bit rate                                 : 1 201 kb/s
Width                                    : 1 920 pixels
Height                                   : 1 080 pixels
Display aspect ratio                     : 16:9
Frame rate mode                          : Constant
Frame rate                               : 23.976 (24000/1001) FPS
Color space                              : YUV
Chroma subsampling                       : 4:2:0
Bit depth                                : 10 bits
Bits/(Pixel*Frame)                       : 0.024
Stream size                              : 678 MiB (87%)
Writing library                          : x265 3.0_Au+14-c7e5878bdd31:[Windows][MSVC 1916][64 bit] 10bit
Encoding settings                        : cpuid=1111039 / frame-threads=4 / numa-pools=16 / wpp / no-pmode / no-pme / no-psnr / ssim / log-level=2 / input-csp=1 / input-res=1920x1080 / interlace=0 / total-frames=113472 / level-idc=0 / high-tier=1 / uhd-bd=0 / ref=4 / no-allow-non-conformance / no-repeat-headers / annexb / no-aud / no-hrd / info / hash=0 / no-temporal-layers / open-gop / min-keyint=23 / keyint=250 / gop-lookahead=0 / bframes=8 / b-adapt=2 / b-pyramid / bframe-bias=40 / rc-lookahead=80 / lookahead-slices=4 / scenecut=40 / radl=0 / no-splice / no-intra-refresh / ctu=64 / min-cu-size=8 / rect / no-amp / max-tu-size=32 / tu-inter-depth=1 / tu-intra-depth=1 / limit-tu=0 / rdoq-level=2 / dynamic-rd=0.00 / ssim-rd / signhide / no-tskip / nr-intra=0 / nr-inter=0 / no-constrained-intra / strong-intra-smoothing / max-merge=3 / limit-refs=3 / limit-modes / me=3 / subme=3 / merange=57 / temporal-mvp / weightp / no-weightb / no-analyze-src-pics / deblock=0:0 / sao / no-sao-non-deblock / rd=4 / no-early-skip / rskip / no-fast-intra / no-tskip-fast / no-cu-lossless / no-b-intra / splitrd-skip / rdpenalty=0 / psy-rd=2.15 / psy-rdoq=1.50 / no-rd-refine / no-lossless / cbqpoffs=0 / crqpoffs=0 / rc=abr / bitrate=1200 / qcomp=0.60 / qpstep=4 / stats-write=0 / stats-read=2 / cplxblur=20.0 / qblur=0.5 / ipratio=1.40 / pbratio=1.30 / aq-mode=3 / aq-strength=0.80 / cutree / zone-count=0 / no-strict-cbr / qg-size=32 / no-rc-grain / qpmax=69 / qpmin=0 / no-const-vbv / sar=0 / overscan=0 / videoformat=5 / range=0 / colorprim=2 / transfer=2 / colormatrix=2 / chromaloc=0 / display-window=0 / max-cll=0,0 / min-luma=0 / max-luma=1023 / log2-max-poc-lsb=8 / vui-timing-info / vui-hrd-info / slices=1 / no-opt-qp-pps / no-opt-ref-list-length-pps / multi-pass-opt-rps / scenecut-bias=0.05 / no-opt-cu-delta-qp / no-aq-motion / no-hdr / no-hdr-opt / no-dhdr10-opt / no-idr-recovery-sei / analysis-reuse-level=10 / scale-factor=0 / refine-intra=0 / refine-inter=0 / refine-mv=0 / refine-ctu-distortion=0 / limit-sao / ctu-info=0 / no-lowpass-dct / refine-analysis-type=0 / copy-pic=1 / max-ausize-factor=1.0 / no-dynamic-refine / no-single-sei / no-hevc-aq / no-svt / qp-adaptation-range=1.00
Default                                  : Yes
Forced                                   : No

Audio
ID                                       : 2
Format                                   : AAC
Format/Info                              : Advanced Audio Codec
Format profile                           : HE-AAC / LC
Codec ID                                 : A_AAC
Duration                                 : 1 h 18 min
Bit rate                                 : 177 kb/s
Channel(s)                               : 6 channels
Channel positions                        : Front: L C R, Side: L R, LFE
Sampling rate                            : 48.0 kHz / 24.0 kHz
Frame rate                               : 23.438 FPS (1024 spf)
Compression mode                         : Lossy
Delay relative to video                  : 31 ms
Stream size                              : 99.7 MiB (13%)
Language                                 : English
Default                                  : No
Forced                                   : No

Subtitle #1
ID                                       : 3
Format                                   : UTF-8
Codec ID                                 : S_TEXT/UTF8
Codec ID/Info                            : UTF-8 Plain Text
Duration                                 : 1 h 18 min
Bit rate                                 : 45 b/s
Count of elements                        : 872
Stream size                              : 26.4 KiB (0%)
Language                                 : English
Default                                  : No
Forced                                   : No

Subtitle #2
ID                                       : 4
Format                                   : UTF-8
Codec ID                                 : S_TEXT/UTF8
Codec ID/Info                            : UTF-8 Plain Text
Duration                                 : 1 h 18 min
Bit rate                                 : 48 b/s
Count of elements                        : 982
Stream size                              : 28.1 KiB (0%)
Language                                 : English
Default                                  : No
Forced                                   : No

Menu
00:00:00.000                             : en:Ratings
00:00:02.926                             : en:Previously On
00:01:12.926                             : en:Opening Credits
00:03:06.926                             : en:The shields that guarded the realms of men
00:08:52.926                             : en:A feast to celebrate
00:12:11.926                             : en:A person that men will want to follow
00:17:50.926                             : en:Celebrations and confessions
00:22:23.926                             : en:The Lady of Storm's End
00:24:22.926                             : en:Follow the drinking game rules
00:27:24.926                             : en:Swearing to secrecy
00:31:55.926                             : en:A plan of action
00:36:05.926                             : en:The importance of family
00:38:26.926                             : en:The word of a Lannister
00:42:38.926                             : en:Unfinished business in King's Landing
00:43:58.926                             : en:The North and King's Landing must be allies
00:47:17.926                             : en:A friend's farewell
00:50:42.926                             : en:A secret can quickly spread
00:52:57.926                             : en:The unthinkable happens
00:55:52.926                             : en:So much for the breaker of chains
00:57:57.926                             : en:Tyrants or Queens
01:04:03.926                             : en:What it means to be a good man
01:07:52.926                             : en:An opportunity to surrender
01:16:54.926                             : en:End Credits
01:18:13.926                             : en:Next Time



Source Information
Release: Game.of.Thrones.S08E04.1080p.AMZN.WEB-DL.DDP5.1.H.264-GoT.mkv (3.99 GBs)


Note From UTR
We have no issue with individuals posting or re-uploading our torrents on a platform we aren't on. However, if this is something you'd like to do, please do so in a 'as-is' format. We ask that you do not create a new torrent, include all descriptions you see above including the UTR logo, tags, notes and screenshots. If you'd like to become a permanent poster on a website we don't post to, feel free to get in contact with a UniTeam member.
If possible please donate: BTC 1QA5fum5AyXvWzdVCkQzUNvw3Ef15fHRaR




Category:TV > HEVC/x265
Lang:English  English
Total Size:1.55 GB
Info Hash:d8693a2586cf234a2b0433526a7dae59e551e393
Added By:UTR
Date Added:06-05-2019 17:34:49

Files

File List: 
 File Size
Featurettes/Game of Thrones S08 Episode 1 Game Revealed (1080p x265 10bit Joy).mkv121 MB
Featurettes/Game of Thrones S08 Episode 1 Inside the Episode (1080p x265 10bit Joy).mkv46 MB
Featurettes/Game of Thrones S08 Episode 2 Game Revealed (1080p x265 10bit Joy).mkv138 MB
Featurettes/Game of Thrones S08 Episode 2 Inside the Episode (1080p x265 10bit Joy).mkv51 MB
Featurettes/Game of Thrones S08 Episode 3 Game Revealed (1080p x265 10bit Joy).mkv279 MB
Featurettes/Game of Thrones S08 Episode 3 Inside the Episode (1080p x265 10bit Joy).mkv75 MB
Featurettes/Game of Thrones S08 Episode 4 Inside the Episode (1080p x265 10bit Joy).mkv59 MB
Featurettes/Game of Thrones S08 First Day on Set (1080p x265 10bit Joy).mkv6 MB
Featurettes/SZA, The Weeknd, Travis Scott - “Power Is Power” Lyric Video - Game Of Thrones (1080p x265 10bit Joy).mkv35 MB
Game of Thrones S08E04 The Last of the Starks (1080p x265 10bit FS99 Joy).mkv779 MB



Comments

There are currently no comments. Be the first one to write something !