Becky 2020 locke and key s01e06 Blindspot Harley Quinn s02e10 Rick and Morty S04E10 The 100 S07E03 etrg The Walking Dead  The Hunt 2020 dc week SEAL Team Jersey Shore Family Vacation s03e27 Marvels Agents of S.H.I.E.L.D. S07E02 ethd BILLIONS rq.mp4 alex rider Chicago Fire The Last Days of American Crime 2020 13 Reasons Why Season 4 WWE Bering Sea Gold S12E05 Greys Anatomy ita evo Space Force s01e02 Survive the Night 2020 ddr harley quinn Gangs of London S01E07 Marvel Week The Blackout Invasion Earth 2019 killing eve in the dark Birds of Prey (and the Fantabulous Emancipation of One Harley Quinn) 2020 13 Reasons Why S04 XXX game of thrones Last Week Tonight 0 ufc 2160p The Gentlemen 2020 what we do in the shadows ettv Chicago PD Rick and Morty etmovies snowpiercer yts Brazzers Best Of Brazzers Scoob! 2020 love life The Invisible Man 2020 Blindspot S05E04 stargirl Hindi  Real Time with Bill Maher S18E17 Choked the 100 13 Reasons Why Space Force S01E01 Westworld Alex Rider S01E01 legends of tomorrow YTS Bad Boys for Life 2020 Chicago Med hindi 2020 
Warning! Use a VPN When Downloading Torrents!
Your IP Address is 18.204.227.117. Location United States
Your Internet Provider can see when you download torrents! Hide your IP Address with a VPN
ETTV warns: You should use VPN to hide your torrenting. HIDE ME NOW
ETTV Recommended TV Shows
In.the.Dark.2019.S02E08.HDTV.x264-SVA[ettv] torrent
Blindspot.S05E04.HDTV.x264-SVA[ettv] torrent
WWE Friday Night SmackDown 2020 06 05 HDTV x264-NWCHD [TJET] torrent
Hightown.S01E04.WEB.H264-BTX[ettv] torrent

ETTV Recommended SD
Sniper Assassins End.2020.BDRip.x264.AC3-EVO.ETRG torrent
Hammer.2020.1080p.WEBRip.X264.DD.5.1-EVO.ETRG torrent
Three.Christs.2020.BDRip.x264.AC3-EVO.ETRG torrent
Dating.Amber.2020.1080p.AMZN.WEBRip.X264.DD.5.1-EVO.ETRG torrent

ETTV Recommended HD
Shutter.Island.2010.BRRip.1080p.HEVC.HDR.Eng.DD5.1.ETRG torrent
Dating.Amber.2020.1080p.AMZN.WEBRip.X264.DD.5.1-EVO[EtHD] torrent
Annabellum.The.Curse.of.Salem.2019.1080p.WEB-DL.AAC2.0.H.264-CMRG[EtHD] torrent
Alien.1979.Theatrical.BRRip.1080p.HEVC.HDR.Multi.DD5.1.ETRG torrent

ETTV Recommended UHD
Suicide.Squad.Hell.to.Pay.2018.MULTi.UHD.BluRay.2160p.HDR.DTS-HDMA.5.1.HEVC-DDR.mkv torrent
Shutter.Island.2010.BDRip.2160p.UHD.HDR.Eng.DTS-HD.MA.ETRG torrent
Birds of Prey (e la fantasmagorica rinascita di Harley Quinn) (2020) [BluRay Rip 2160p HEVC 10bit-HDR ITA-ENG DTS-AC3-SUBS] [M@HD] torrent
Alien.1979.Theatrical.BDRip.2160p.UHD.HDR.Multi.DTS-HD.MA.ETRG torrent

ETTV Recommended Cam
The Hunt 2020 HDCAM x264 AC3-ETRG torrent
The Burnt Orange Heresy 2020 720p HDCAM-C1NEM4 torrent

ETTV Recommended Foreign
Sarileru Neekevvaru (2020) [TELUGU - 720p - WEB HDRip - x264 - DD 5.1 - MSub - 2GB] - MAZE torrent
Murder Manual (2020) HDRip 720p [Hindi-Sub] x264 - 1XCinema torrent
Le.Boucher.1970.(Claude.Chabrol-Thriller).720p.x264-Classics torrent
Bheeshma (2020) [TELUGU - 720p - WEB HDRip - x264 - DD 5.1 - MSub - 2GB] - MAZE torrent
Forensic.2020.1080p.NF.WEB-DL.DDP5.1.x264-Telly torrent
Garbh 2017 Marathi 1080p Web-DL x264 AAC [TMB] torrent

Sponsored


Download Torrent "Alien (1979) DC (2160p BluRay x265 HEVC 10bit AAC 5.1 Joy) [UTR]"

IMDB Details
Description:

N/A

Genre:

N/A

Download Torrent (Magnet)
Download Torrent (File)
Seeds: 5
Leechers: 27
Completed: 17 
Last Checked: 06-05-2019 02:29:16


Details
Title:Alien (1979) DC (2160p BluRay x265 HEVC 10bit AAC 5.1 Joy) [UTR]
Description:





Media Information
General
Format                                   : Matroska
Format version                           : Version 4 / Version 2
File size                                : 5.66 GiB
Duration                                 : 1 h 56 min
Overall bit rate                         : 6 951 kb/s
Movie name                               : Alien 1979 DC  (2160p x265 10bit FS76 Joy) [UTR]
Encoded date                             : UTC 2019-04-28 20:05:06
Writing application                      : mkvmerge v33.1.0 ('Primrose') 64-bit
Writing library                          : libebml v1.3.7 + libmatroska v1.5.0
Attachments                              : folder.jpg
Writing frontend                         : StaxRip v1.8.2.0

Video
ID                                       : 1
Format                                   : HEVC
Format/Info                              : High Efficiency Video Coding
Format profile                           : Main [email protected]@Main
Codec ID                                 : V_MPEGH/ISO/HEVC
Duration                                 : 1 h 55 min
Bit rate                                 : 5 999 kb/s
Width                                    : 3 840 pixels
Height                                   : 1 600 pixels
Display aspect ratio                     : 2.40:1
Frame rate mode                          : Constant
Frame rate                               : 23.976 (24000/1001) FPS
Color space                              : YUV
Chroma subsampling                       : 4:2:0
Bit depth                                : 10 bits
Bits/(Pixel*Frame)                       : 0.041
Stream size                              : 4.85 GiB (86%)
Writing library                          : x265 3.0_Au+14-c7e5878bdd31:[Windows][MSVC 1916][64 bit] 10bit
Encoding settings                        : cpuid=1111039 / frame-threads=3 / numa-pools=12 / wpp / no-pmode / no-pme / no-psnr / ssim / log-level=2 / input-csp=1 / input-res=3840x1600 / interlace=0 / total-frames=166616 / level-idc=0 / high-tier=1 / uhd-bd=0 / ref=4 / no-allow-non-conformance / no-repeat-headers / annexb / no-aud / no-hrd / info / hash=0 / no-temporal-layers / open-gop / min-keyint=23 / keyint=250 / gop-lookahead=0 / bframes=8 / b-adapt=2 / b-pyramid / bframe-bias=20 / rc-lookahead=80 / lookahead-slices=4 / scenecut=40 / radl=0 / no-splice / no-intra-refresh / ctu=64 / min-cu-size=8 / no-rect / no-amp / max-tu-size=32 / tu-inter-depth=1 / tu-intra-depth=1 / limit-tu=0 / rdoq-level=2 / dynamic-rd=0.00 / ssim-rd / signhide / no-tskip / nr-intra=0 / nr-inter=0 / no-constrained-intra / strong-intra-smoothing / max-merge=3 / limit-refs=3 / limit-modes / me=3 / subme=3 / merange=57 / temporal-mvp / weightp / no-weightb / no-analyze-src-pics / deblock=0:0 / sao / no-sao-non-deblock / rd=4 / early-skip / rskip / no-fast-intra / no-tskip-fast / no-cu-lossless / no-b-intra / splitrd-skip / rdpenalty=0 / psy-rd=2.20 / psy-rdoq=1.15 / no-rd-refine / no-lossless / cbqpoffs=0 / crqpoffs=0 / rc=abr / bitrate=6000 / qcomp=0.60 / qpstep=4 / stats-write=0 / stats-read=2 / cplxblur=20.0 / qblur=0.5 / ipratio=1.40 / pbratio=1.30 / aq-mode=3 / aq-strength=0.80 / cutree / zone-count=0 / no-strict-cbr / qg-size=32 / no-rc-grain / qpmax=69 / qpmin=0 / no-const-vbv / sar=0 / overscan=0 / videoformat=5 / range=0 / colorprim=2 / transfer=2 / colormatrix=2 / chromaloc=0 / display-window=0 / max-cll=0,0 / min-luma=0 / max-luma=1023 / log2-max-poc-lsb=8 / vui-timing-info / vui-hrd-info / slices=1 / no-opt-qp-pps / no-opt-ref-list-length-pps / multi-pass-opt-rps / scenecut-bias=0.05 / no-opt-cu-delta-qp / no-aq-motion / no-hdr / no-hdr-opt / no-dhdr10-opt / no-idr-recovery-sei / analysis-reuse-level=10 / scale-factor=0 / refine-intra=0 / refine-inter=0 / refine-mv=0 / refine-ctu-distortion=0 / limit-sao / ctu-info=0 / no-lowpass-dct / refine-analysis-type=0 / copy-pic=1 / max-ausize-factor=1.0 / no-dynamic-refine / no-single-sei / no-hevc-aq / no-svt / qp-adaptation-range=1.00
Default                                  : Yes
Forced                                   : No

Audio #1
ID                                       : 2
Format                                   : AAC
Format/Info                              : Advanced Audio Codec
Format profile                           : LC
Codec ID                                 : A_AAC
Duration                                 : 1 h 55 min
Bit rate                                 : 411 kb/s
Channel(s)                               : 6 channels
Channel positions                        : Front: L C R, Side: L R, LFE
Sampling rate                            : 48.0 kHz
Frame rate                               : 46.875 FPS (1024 spf)
Compression mode                         : Lossy
Delay relative to video                  : 9 ms
Stream size                              : 341 MiB (6%)
Language                                 : English
Default                                  : No
Forced                                   : No

Audio #2
ID                                       : 3
Format                                   : AAC
Format/Info                              : Advanced Audio Codec
Format profile                           : LC
Codec ID                                 : A_AAC
Duration                                 : 1 h 55 min
Bit rate                                 : 89.1 kb/s
Channel(s)                               : 2 channels
Channel positions                        : Front: L R
Sampling rate                            : 48.0 kHz
Frame rate                               : 46.875 FPS (1024 spf)
Compression mode                         : Lossy
Delay relative to video                  : 9 ms
Stream size                              : 73.8 MiB (1%)
Language                                 : Spanish
Default                                  : No
Forced                                   : No

Audio #3
ID                                       : 4
Format                                   : AAC
Format/Info                              : Advanced Audio Codec
Format profile                           : HE-AAC / LC
Codec ID                                 : A_AAC
Duration                                 : 1 h 55 min
Bit rate                                 : 44.9 kb/s
Channel(s)                               : 2 channels
Channel positions                        : Front: L R
Sampling rate                            : 48.0 kHz / 24.0 kHz
Frame rate                               : 23.438 FPS (1024 spf)
Compression mode                         : Lossy
Delay relative to video                  : 31 ms
Stream size                              : 37.2 MiB (1%)
Title                                    : Commentary
Language                                 : English
Default                                  : No
Forced                                   : No

Audio #4
ID                                       : 5
Format                                   : AAC
Format/Info                              : Advanced Audio Codec
Format profile                           : HE-AAC / LC
Codec ID                                 : A_AAC
Duration                                 : 1 h 55 min
Bit rate                                 : 48.0 kb/s
Channel(s)                               : 2 channels
Channel positions                        : Front: L R
Sampling rate                            : 48.0 kHz / 24.0 kHz
Frame rate                               : 23.438 FPS (1024 spf)
Compression mode                         : Lossy
Delay relative to video                  : 31 ms
Stream size                              : 41.3 MiB (1%)
Title                                    : Commentary 2
Language                                 : English
Default                                  : No
Forced                                   : No

Audio #5
ID                                       : 6
Format                                   : AAC
Format/Info                              : Advanced Audio Codec
Format profile                           : HE-AAC / LC
Codec ID                                 : A_AAC
Duration                                 : 1 h 55 min
Bit rate                                 : 21.6 kb/s
Channel(s)                               : 2 channels
Channel positions                        : Front: L R
Sampling rate                            : 48.0 kHz / 24.0 kHz
Frame rate                               : 23.438 FPS (1024 spf)
Compression mode                         : Lossy
Delay relative to video                  : 31 ms
Stream size                              : 17.9 MiB (0%)
Title                                    : Commentary 3
Language                                 : English
Default                                  : No
Forced                                   : No

Audio #6
ID                                       : 7
Format                                   : AAC
Format/Info                              : Advanced Audio Codec
Format profile                           : LC
Codec ID                                 : A_AAC
Duration                                 : 1 h 55 min
Bit rate                                 : 91.6 kb/s
Channel(s)                               : 2 channels
Channel positions                        : Front: L R
Sampling rate                            : 48.0 kHz
Frame rate                               : 46.875 FPS (1024 spf)
Compression mode                         : Lossy
Delay relative to video                  : 9 ms
Stream size                              : 75.9 MiB (1%)
Language                                 : French
Default                                  : No
Forced                                   : No

Audio #7
ID                                       : 8
Format                                   : AAC
Format/Info                              : Advanced Audio Codec
Format profile                           : LC
Codec ID                                 : A_AAC
Duration                                 : 1 h 55 min
Bit rate                                 : 91.2 kb/s
Channel(s)                               : 2 channels
Channel positions                        : Front: L R
Sampling rate                            : 48.0 kHz
Frame rate                               : 46.875 FPS (1024 spf)
Compression mode                         : Lossy
Delay relative to video                  : 9 ms
Stream size                              : 75.6 MiB (1%)
Language                                 : German
Default                                  : No
Forced                                   : No

Audio #8
ID                                       : 9
Format                                   : AAC
Format/Info                              : Advanced Audio Codec
Format profile                           : LC
Codec ID                                 : A_AAC
Duration                                 : 1 h 55 min
Bit rate                                 : 53.9 kb/s
Channel(s)                               : 1 channel
Channel positions                        : Front: C
Sampling rate                            : 48.0 kHz
Frame rate                               : 46.875 FPS (1024 spf)
Compression mode                         : Lossy
Delay relative to video                  : 9 ms
Stream size                              : 44.6 MiB (1%)
Language                                 : Japanese
Default                                  : No
Forced                                   : No

Subtitle #1
ID                                       : 10
Format                                   : UTF-8
Codec ID                                 : S_TEXT/UTF8
Codec ID/Info                            : UTF-8 Plain Text
Duration                                 : 1 h 49 min
Bit rate                                 : 40 b/s
Count of elements                        : 1025
Stream size                              : 32.5 KiB (0%)
Language                                 : English
Default                                  : No
Forced                                   : No

Subtitle #2
ID                                       : 11
Format                                   : UTF-8
Codec ID                                 : S_TEXT/UTF8
Codec ID/Info                            : UTF-8 Plain Text
Duration                                 : 1 h 49 min
Bit rate                                 : 42 b/s
Count of elements                        : 1050
Stream size                              : 34.1 KiB (0%)
Language                                 : English
Default                                  : No
Forced                                   : No

Subtitle #3
ID                                       : 12
Format                                   : VobSub
Muxing mode                              : zlib
Codec ID                                 : S_VOBSUB
Codec ID/Info                            : Picture based subtitle format used on DVDs
Duration                                 : 1 h 49 min
Bit rate                                 : 7 383 b/s
Count of elements                        : 1054
Stream size                              : 5.81 MiB (0%)
Language                                 : English
Default                                  : No
Forced                                   : No

Subtitle #4
ID                                       : 13
Format                                   : VobSub
Muxing mode                              : zlib
Codec ID                                 : S_VOBSUB
Codec ID/Info                            : Picture based subtitle format used on DVDs
Duration                                 : 1 h 53 min
Bit rate                                 : 5 589 b/s
Count of elements                        : 846
Stream size                              : 4.54 MiB (0%)
Language                                 : Spanish
Default                                  : No
Forced                                   : No

Subtitle #5
ID                                       : 14
Format                                   : VobSub
Muxing mode                              : zlib
Codec ID                                 : S_VOBSUB
Codec ID/Info                            : Picture based subtitle format used on DVDs
Duration                                 : 1 h 53 min
Bit rate                                 : 4 865 b/s
Count of elements                        : 702
Stream size                              : 3.96 MiB (0%)
Language                                 : French
Default                                  : No
Forced                                   : No

Subtitle #6
ID                                       : 15
Format                                   : VobSub
Muxing mode                              : zlib
Codec ID                                 : S_VOBSUB
Codec ID/Info                            : Picture based subtitle format used on DVDs
Duration                                 : 1 h 50 min
Bit rate                                 : 5 219 b/s
Count of elements                        : 796
Stream size                              : 4.13 MiB (0%)
Language                                 : Spanish
Default                                  : No
Forced                                   : No

Subtitle #7
ID                                       : 16
Format                                   : VobSub
Muxing mode                              : zlib
Codec ID                                 : S_VOBSUB
Codec ID/Info                            : Picture based subtitle format used on DVDs
Duration                                 : 1 h 53 min
Bit rate                                 : 4 524 b/s
Count of elements                        : 767
Stream size                              : 3.68 MiB (0%)
Language                                 : Danish
Default                                  : No
Forced                                   : No

Subtitle #8
ID                                       : 17
Format                                   : VobSub
Muxing mode                              : zlib
Codec ID                                 : S_VOBSUB
Codec ID/Info                            : Picture based subtitle format used on DVDs
Duration                                 : 1 h 50 min
Bit rate                                 : 4 382 b/s
Count of elements                        : 631
Stream size                              : 3.47 MiB (0%)
Language                                 : Dutch
Default                                  : No
Forced                                   : No

Subtitle #9
ID                                       : 18
Format                                   : VobSub
Muxing mode                              : zlib
Codec ID                                 : S_VOBSUB
Codec ID/Info                            : Picture based subtitle format used on DVDs
Duration                                 : 1 h 50 min
Bit rate                                 : 5 152 b/s
Count of elements                        : 710
Stream size                              : 4.08 MiB (0%)
Language                                 : Finnish
Default                                  : No
Forced                                   : No

Subtitle #10
ID                                       : 19
Format                                   : VobSub
Muxing mode                              : zlib
Codec ID                                 : S_VOBSUB
Codec ID/Info                            : Picture based subtitle format used on DVDs
Duration                                 : 1 h 50 min
Bit rate                                 : 5 858 b/s
Count of elements                        : 792
Stream size                              : 4.63 MiB (0%)
Language                                 : German
Default                                  : No
Forced                                   : No

Subtitle #11
ID                                       : 20
Format                                   : VobSub
Muxing mode                              : zlib
Codec ID                                 : S_VOBSUB
Codec ID/Info                            : Picture based subtitle format used on DVDs
Duration                                 : 1 h 50 min
Bit rate                                 : 5 165 b/s
Count of elements                        : 778
Stream size                              : 4.09 MiB (0%)
Language                                 : Italian
Default                                  : No
Forced                                   : No

Subtitle #12
ID                                       : 21
Format                                   : VobSub
Muxing mode                              : zlib
Codec ID                                 : S_VOBSUB
Codec ID/Info                            : Picture based subtitle format used on DVDs
Duration                                 : 1 h 50 min
Bit rate                                 : 2 349 b/s
Count of elements                        : 640
Stream size                              : 1.86 MiB (0%)
Language                                 : Japanese
Default                                  : No
Forced                                   : No

Subtitle #13
ID                                       : 22
Format                                   : VobSub
Muxing mode                              : zlib
Codec ID                                 : S_VOBSUB
Codec ID/Info                            : Picture based subtitle format used on DVDs
Duration                                 : 1 h 32 min
Bit rate                                 : 79 b/s
Count of elements                        : 13
Stream size                              : 53.8 KiB (0%)
Language                                 : Japanese
Default                                  : No
Forced                                   : No

Subtitle #14
ID                                       : 23
Format                                   : VobSub
Muxing mode                              : zlib
Codec ID                                 : S_VOBSUB
Codec ID/Info                            : Picture based subtitle format used on DVDs
Duration                                 : 1 h 50 min
Bit rate                                 : 4 932 b/s
Count of elements                        : 780
Stream size                              : 3.90 MiB (0%)
Language                                 : Norwegian Bokmal
Default                                  : No
Forced                                   : No

Subtitle #15
ID                                       : 24
Format                                   : VobSub
Muxing mode                              : zlib
Codec ID                                 : S_VOBSUB
Codec ID/Info                            : Picture based subtitle format used on DVDs
Duration                                 : 1 h 50 min
Bit rate                                 : 4 942 b/s
Count of elements                        : 764
Stream size                              : 3.91 MiB (0%)
Language                                 : Swedish
Default                                  : No
Forced                                   : No

Subtitle #16
ID                                       : 25
Format                                   : VobSub
Muxing mode                              : zlib
Codec ID                                 : S_VOBSUB
Codec ID/Info                            : Picture based subtitle format used on DVDs
Duration                                 : 1 h 50 min
Bit rate                                 : 3 627 b/s
Count of elements                        : 786
Stream size                              : 2.87 MiB (0%)
Language                                 : Chinese
Default                                  : No
Forced                                   : No

Subtitle #17
ID                                       : 26
Format                                   : VobSub
Muxing mode                              : zlib
Codec ID                                 : S_VOBSUB
Codec ID/Info                            : Picture based subtitle format used on DVDs
Duration                                 : 1 h 50 min
Bit rate                                 : 4 593 b/s
Count of elements                        : 745
Stream size                              : 3.64 MiB (0%)
Language                                 : Czech
Default                                  : No
Forced                                   : No

Subtitle #18
ID                                       : 27
Format                                   : VobSub
Muxing mode                              : zlib
Codec ID                                 : S_VOBSUB
Codec ID/Info                            : Picture based subtitle format used on DVDs
Duration                                 : 1 h 50 min
Bit rate                                 : 3 636 b/s
Count of elements                        : 779
Stream size                              : 2.88 MiB (0%)
Language                                 : Korean
Default                                  : No
Forced                                   : No

Subtitle #19
ID                                       : 28
Format                                   : VobSub
Muxing mode                              : zlib
Codec ID                                 : S_VOBSUB
Codec ID/Info                            : Picture based subtitle format used on DVDs
Duration                                 : 1 h 50 min
Bit rate                                 : 3 158 b/s
Count of elements                        : 791
Stream size                              : 2.50 MiB (0%)
Language                                 : Chinese
Default                                  : No
Forced                                   : No

Subtitle #20
ID                                       : 29
Format                                   : VobSub
Muxing mode                              : zlib
Codec ID                                 : S_VOBSUB
Codec ID/Info                            : Picture based subtitle format used on DVDs
Duration                                 : 1 h 53 min
Bit rate                                 : 4 604 b/s
Count of elements                        : 708
Stream size                              : 3.75 MiB (0%)
Language                                 : Polish
Default                                  : No
Forced                                   : No

Subtitle #21
ID                                       : 30
Format                                   : VobSub
Muxing mode                              : zlib
Codec ID                                 : S_VOBSUB
Codec ID/Info                            : Picture based subtitle format used on DVDs
Duration                                 : 1 h 53 min
Bit rate                                 : 4 036 b/s
Count of elements                        : 786
Stream size                              : 3.29 MiB (0%)
Language                                 : Thai
Default                                  : No
Forced                                   : No

Subtitle #22
ID                                       : 31
Format                                   : VobSub
Muxing mode                              : zlib
Codec ID                                 : S_VOBSUB
Codec ID/Info                            : Picture based subtitle format used on DVDs
Duration                                 : 1 h 55 min
Bit rate                                 : 20.2 kb/s
Count of elements                        : 1919
Stream size                              : 16.7 MiB (0%)
Language                                 : English
Default                                  : No
Forced                                   : No

Subtitle #23
ID                                       : 32
Format                                   : VobSub
Muxing mode                              : zlib
Codec ID                                 : S_VOBSUB
Codec ID/Info                            : Picture based subtitle format used on DVDs
Duration                                 : 1 h 55 min
Bit rate                                 : 17.3 kb/s
Count of elements                        : 1872
Stream size                              : 14.3 MiB (0%)
Language                                 : French
Default                                  : No
Forced                                   : No

Subtitle #24
ID                                       : 33
Format                                   : VobSub
Muxing mode                              : zlib
Codec ID                                 : S_VOBSUB
Codec ID/Info                            : Picture based subtitle format used on DVDs
Duration                                 : 1 h 55 min
Bit rate                                 : 16.4 kb/s
Count of elements                        : 1862
Stream size                              : 13.5 MiB (0%)
Language                                 : Spanish
Default                                  : No
Forced                                   : No

Subtitle #25
ID                                       : 34
Format                                   : VobSub
Muxing mode                              : zlib
Codec ID                                 : S_VOBSUB
Codec ID/Info                            : Picture based subtitle format used on DVDs
Duration                                 : 1 h 55 min
Bit rate                                 : 20.2 kb/s
Count of elements                        : 1965
Stream size                              : 16.7 MiB (0%)
Language                                 : German
Default                                  : No
Forced                                   : No

Subtitle #26
ID                                       : 35
Format                                   : VobSub
Muxing mode                              : zlib
Codec ID                                 : S_VOBSUB
Codec ID/Info                            : Picture based subtitle format used on DVDs
Duration                                 : 1 h 55 min
Bit rate                                 : 17.7 kb/s
Count of elements                        : 1856
Stream size                              : 14.7 MiB (0%)
Language                                 : Italian
Default                                  : No
Forced                                   : No

Subtitle #27
ID                                       : 36
Format                                   : VobSub
Muxing mode                              : zlib
Codec ID                                 : S_VOBSUB
Codec ID/Info                            : Picture based subtitle format used on DVDs
Duration                                 : 1 h 55 min
Bit rate                                 : 10.4 kb/s
Count of elements                        : 1625
Stream size                              : 8.57 MiB (0%)
Language                                 : Japanese
Default                                  : No
Forced                                   : No

Subtitle #28
ID                                       : 37
Format                                   : VobSub
Muxing mode                              : zlib
Codec ID                                 : S_VOBSUB
Codec ID/Info                            : Picture based subtitle format used on DVDs
Duration                                 : 1 h 55 min
Bit rate                                 : 6 914 b/s
Count of elements                        : 787
Stream size                              : 5.69 MiB (0%)
Language                                 : English
Default                                  : No
Forced                                   : No

Subtitle #29
ID                                       : 38
Format                                   : VobSub
Muxing mode                              : zlib
Codec ID                                 : S_VOBSUB
Codec ID/Info                            : Picture based subtitle format used on DVDs
Duration                                 : 1 h 55 min
Bit rate                                 : 6 003 b/s
Count of elements                        : 761
Stream size                              : 4.96 MiB (0%)
Language                                 : French
Default                                  : No
Forced                                   : No

Subtitle #30
ID                                       : 39
Format                                   : VobSub
Muxing mode                              : zlib
Codec ID                                 : S_VOBSUB
Codec ID/Info                            : Picture based subtitle format used on DVDs
Duration                                 : 1 h 55 min
Bit rate                                 : 6 222 b/s
Count of elements                        : 760
Stream size                              : 5.14 MiB (0%)
Language                                 : Spanish
Default                                  : No
Forced                                   : No

Subtitle #31
ID                                       : 40
Format                                   : VobSub
Muxing mode                              : zlib
Codec ID                                 : S_VOBSUB
Codec ID/Info                            : Picture based subtitle format used on DVDs
Duration                                 : 1 h 55 min
Bit rate                                 : 7 286 b/s
Count of elements                        : 760
Stream size                              : 6.02 MiB (0%)
Language                                 : German
Default                                  : No
Forced                                   : No

Subtitle #32
ID                                       : 41
Format                                   : VobSub
Muxing mode                              : zlib
Codec ID                                 : S_VOBSUB
Codec ID/Info                            : Picture based subtitle format used on DVDs
Duration                                 : 1 h 55 min
Bit rate                                 : 6 672 b/s
Count of elements                        : 757
Stream size                              : 5.51 MiB (0%)
Language                                 : Italian
Default                                  : No
Forced                                   : No

Subtitle #33
ID                                       : 42
Format                                   : VobSub
Muxing mode                              : zlib
Codec ID                                 : S_VOBSUB
Codec ID/Info                            : Picture based subtitle format used on DVDs
Duration                                 : 1 h 55 min
Bit rate                                 : 3 852 b/s
Count of elements                        : 540
Stream size                              : 3.17 MiB (0%)
Language                                 : Japanese
Default                                  : No
Forced                                   : No

Subtitle #34
ID                                       : 43
Format                                   : UTF-8
Codec ID                                 : S_TEXT/UTF8
Codec ID/Info                            : UTF-8 Plain Text
Duration                                 : 1 h 51 min
Bit rate                                 : 46 b/s
Count of elements                        : 1064
Stream size                              : 38.3 KiB (0%)
Language                                 : Arabic
Default                                  : No
Forced                                   : No

Subtitle #35
ID                                       : 44
Format                                   : UTF-8
Codec ID                                 : S_TEXT/UTF8
Codec ID/Info                            : UTF-8 Plain Text
Duration                                 : 1 h 51 min
Bit rate                                 : 32 b/s
Count of elements                        : 811
Stream size                              : 26.9 KiB (0%)
Language                                 : Portuguese
Default                                  : No
Forced                                   : No

Subtitle #36
ID                                       : 45
Format                                   : UTF-8
Codec ID                                 : S_TEXT/UTF8
Codec ID/Info                            : UTF-8 Plain Text
Duration                                 : 1 h 50 min
Bit rate                                 : 41 b/s
Count of elements                        : 670
Stream size                              : 33.6 KiB (0%)
Language                                 : Persian
Default                                  : No
Forced                                   : No

Subtitle #37
ID                                       : 46
Format                                   : UTF-8
Codec ID                                 : S_TEXT/UTF8
Codec ID/Info                            : UTF-8 Plain Text
Duration                                 : 1 h 54 min
Bit rate                                 : 44 b/s
Count of elements                        : 758
Stream size                              : 37.3 KiB (0%)
Language                                 : Greek
Default                                  : No
Forced                                   : No

Subtitle #38
ID                                       : 47
Format                                   : UTF-8
Codec ID                                 : S_TEXT/UTF8
Codec ID/Info                            : UTF-8 Plain Text
Duration                                 : 1 h 50 min
Bit rate                                 : 34 b/s
Count of elements                        : 793
Stream size                              : 28.3 KiB (0%)
Language                                 : Hungarian
Default                                  : No
Forced                                   : No

Subtitle #39
ID                                       : 48
Format                                   : UTF-8
Codec ID                                 : S_TEXT/UTF8
Codec ID/Info                            : UTF-8 Plain Text
Duration                                 : 1 h 56 min
Bit rate                                 : 26 b/s
Count of elements                        : 677
Stream size                              : 22.3 KiB (0%)
Language                                 : Romanian
Default                                  : No
Forced                                   : No

Subtitle #40
ID                                       : 49
Format                                   : UTF-8
Codec ID                                 : S_TEXT/UTF8
Codec ID/Info                            : UTF-8 Plain Text
Duration                                 : 1 h 51 min
Bit rate                                 : 39 b/s
Count of elements                        : 719
Stream size                              : 32.3 KiB (0%)
Language                                 : Vietnamese
Default                                  : No
Forced                                   : No

Menu
00:00:00.000                             : :Chapter 1
00:01:59.119                             : :Chapter 2
00:04:38.111                             : :Chapter 3
00:07:53.848                             : :Chapter 4
00:09:08.506                             : :Chapter 5
00:12:38.424                             : :Chapter 6
00:14:14.103                             : :Chapter 7
00:20:03.910                             : :Chapter 8
00:23:20.649                             : :Chapter 9
00:25:03.251                             : :Chapter 10
00:27:48.875                             : :Chapter 11
00:31:49.824                             : :Chapter 12
00:35:30.920                             : :Chapter 13
00:37:03.179                             : :Chapter 14
00:40:31.887                             : :Chapter 15
00:43:24.518                             : :Chapter 16
00:47:26.301                             : :Chapter 17
00:50:04.125                             : :Chapter 18
00:51:42.307                             : :Chapter 19
00:54:22.675                             : :Chapter 20
00:58:59.744                             : :Chapter 21
01:00:24.870                             : :Chapter 22
01:03:34.310                             : :Chapter 23
01:08:16.717                             : :Chapter 24
01:10:02.948                             : :Chapter 25
01:12:50.407                             : :Chapter 26
01:14:31.925                             : :Chapter 27
01:17:12.711                             : :Chapter 28
01:19:00.902                             : :Chapter 29
01:22:32.280                             : :Chapter 30
01:26:37.233                             : :Chapter 31
01:28:47.571                             : :Chapter 32
01:30:46.732                             : :Chapter 33
01:32:37.760                             : :Chapter 34
01:34:21.780                             : :Chapter 35
01:37:43.148                             : :Chapter 36
01:39:12.446                             : :Chapter 37
01:43:26.241                             : :Chapter 38
01:46:15.952                             : :Chapter 39
01:53:03.609                             : :Chapter 40



Source Information
Release: Alien.1979.DC.2160p.BluRay.REMUX.HEVC.DTS-HD.MA.5.1-FGT  [52.5 GB]


Note From UTR
We have no issue with individuals posting or re-uploading our torrents on a platform we aren't on. However, if this is something you'd like to do, please do so in a 'as-is' format. We ask that you do not create a new torrent, include all descriptions you see above including the UTR logo, tags, notes and screenshots. If you'd like to become a permanent poster on a website we don't post to, feel free to get in contact with a UniTeam member.
If possible please donate: BTC 1QA5fum5AyXvWzdVCkQzUNvw3Ef15fHRaR



Category:Movies > HEVC/x265
Lang:English  English
Total Size:6.07 GB
Info Hash:209605802ea084cd864578bd0dce1087a3411385
Added By:UTR
Date Added:06-05-2019 02:29:12

Files

File List: 
 File Size
Alien 1979 DC (2160p x265 10bit FS76 Joy).mkv5.66 GB
Alien 1979 DC Ridley Scott Introduction.mkv2 MB
Encoded by JoyBell (UTR).txt3.18 kB
Featurettes/Deleted Ripley Scenes.mkv9 MB
Featurettes/Fear of the Unknown - Shepperton Studios 1979.mkv65 MB
Featurettes/Future Tense - Music and Editing.mkv34 MB
Featurettes/Outward Bound - Visual Effects.mkv43 MB
Featurettes/The Beast Within - The Making of Alien.mkv49 MB
Featurettes/The Darkest Reaches - Nostromo and Alien Planet.mkv50 MB
Featurettes/The Eighth Passenger - Creature Design.mkv92 MB
Featurettes/The Visualists - Direction and Design.mkv44 MB
Featurettes/Truckers in Space - Casting.mkv34 MB
folder.jpg431.01 kB
How to play HEVC (THIS FILE).txt3.42 kB
Ninite K-Lite Codecs Unattended Silent Installer and Updater.website561.00 B



Comments

There are currently no comments. Be the first one to write something !