FBI S02E19 survivor S40E08 survivor The Walking Dead  NCIS S17E19 the banker 2020 ddr Jumanji The Next Level 2019 the walking dead s10e14 The Invisible Man 2020 Ozark s03e01 The Good Doctor S03E20 Motherland Fort Salem S01E03 fantasy island 2020 Contagion 2011 The Masked Singer S03E10 yts 1917 2019 etrg Money Heist The Curse of Oak Island S07E19 The Challenge S35E01 etmovies devs s01e06 Greys anatomy Ozark s03e05 ettv Dolittle 2020 The Gentlemen 2019 Supernatural bad boys for life the hunt 2020 ethd The Platform 2019 for life s01e07 modern family better call saul evo big bang theory español Sonic the Hedgehog 2020 birds of prey (and the fantabulous emancipation of one harley quinn) 2020 hindi A Quiet Place Part II 2020 The Call of the Wild 2020 the magicians westworld frozen ii 2019 Westworld S03E03 Underwater The Way Back 2020 Onward 2020 Bloodshot 2020 Tiger King Murder, Mayhem and Madness S01E01 Modern Family S11E16 Star Wars The Rise of Skywalker 2019 arrow español Bad Boys for Life 2020 Better Call Saul S05E07 The Magicians S05E13 Devs Impractical Jokers The Movie 2020 Tiger King Knives Out 2019 Dave S01E06 rq.mp4 Seal Team Vivarium 2020 Homeland S08E08 xxx FBI Most Wanted S01E10 Underwater 2020 
ETTV Recommended TV Shows
How.to.Get.Away.with.Murder.S06E10.WEB.H264-iNSiDiOUS[ettv] torrent
Tommy.S01E07.HDTV.x264-KILLERS[ettv] torrent
Young.Sheldon.S03E19.WEB.x264-XLF[ettv] torrent
Law.and.Order.SVU.S21E18.HDTV.x264-SVA[ettv] torrent

ETTV Recommended SD
Coffee.and.Kareem.2020.HDRip.XviD.AC3-EVO torrent
The.Whistlers.2020.HDRip.XviD.AC3-EVO torrent
The.Other.Lamb.2019.AMZN.HDRip.XViD-ETRG torrent
Brahms.The.Boy.II.2020.AMZN.HDRip.XViD-ETRG torrent

ETTV Recommended HD
Coffee.and.Kareem.2020.1080p.NF.WEB-DL.DDP5.1.ATMOS.x264-CMRG[EtHD] torrent
Love.Takes.Flight.2019.1080p.AMZN.WEB-DL.DDP2.0.H.264-TEPES[EtHD] torrent
The.Whistlers.2019.1080p.AMZN.WEB-DL.DDP5.1.H264-CMRG[EtHD] torrent
Shooting.Heroin.2020.1080p.WEB-DL.H264.AC3-EVO[EtHD] torrent

ETTV Recommended UHD
The.Elephant.Man.1980.MULTi.UHD.Bluray.2160p.HDR.DTS-HDMA.2.0.HEVC-DDR.mkv torrent
A.Bugs.Life.1998.BDRip.2160p.UHD.HDR.Eng.Fre.TrueHD.ETRG torrent
Monsters.Inc.2001.BDRip.2160p.UHD.HDR.Eng.Fre.TrueHD.ETRG torrent
Monsters.University.2013.BDRip.2160p.UHD.HDR.Eng.TrueHD.ETRG torrent

ETTV Recommended Cam
My Spy 2020 HDCAM x264 AC3-ETRG torrent
The Hunt 2020 HDCAM x264 AC3-ETRG torrent
The Burnt Orange Heresy 2020 720p HDCAM-C1NEM4 torrent
Fantasy Island 2020 UNRATED HDTS XViD AC3-ETRG torrent

ETTV Recommended Foreign
Ministry of Fear-Il prigioniero del terrore (1944) ITA-ENG Ac3 2.0 BDRip 1080p H264 [ArMor] torrent
Panchayat.S01.2020.720p.AMZN.WEB-DL.HEVC.DD+5.1.x265-Telly torrent
Frozen II 2019.1080p.DSNP+.WEB-DL.Hin-Multi.AAC.2.0.H264-Telly torrent
Jexi (2019) ITA-ENG Ac3 5.1 BDRip 1080p H264 [ArMor] torrent


Download Torrent "Man of Steel (2013) Complete (1080p BluRay x265 HEVC 10bit Advanced Audio 7..."

IMDB Details
Description:

Clark Kent, one of the last of an extinguished race disguised as an unremarkable human, is forced to reveal his identity when Earth is invaded by an army of survivors who threaten to bring the planet to the brink of destruction.

Genre:

Action, Adventure, Fantasy, Sci-Fi

Download Torrent (Magnet)
Seeds: 176
Leechers: 174
Completed: 1,139 
Last Checked: 29-12-2018 07:26:36


Details
Title:Man of Steel (2013) Complete (1080p BluRay x265 HEVC 10bit Advanced Audio 7...
Description:
[img="https://i.postimg.cc/hjkyHjgc/pirate-shark-banner-with-forum-site-address-www-imagesplitter-n.png" alt=""][img="https://i.postimg.cc/CLHPQS2p/pirate-shark-banner-with-forum-site-address-www-imagesplitter-n.png" alt=""]
[img="https://i.postimg.cc/13vWyMPW/pirate-shark-banner-with-forum-site-address-www-imagesplitter-n.png" alt=""][img="https://i.postimg.cc/yNWLx987/pirate-shark-banner-with-forum-site-address-www-imagesplitter-n.png" alt=""]








Media Information
General
Format : Matroska
Format version : Version 4 / Version 2
File size : 16.1 GiB
Duration : 2 h 23 min
Overall bit rate : 16.1 Mb/s
Movie name : Man of Steel
Encoded date : UTC 2018-12-25 17:33:32
Writing application : mkvmerge v29.0.0 ('Like It Or Not') 64-bit
Writing library : libebml v1.3.6 + libmatroska v1.4.9
Cover : Yes
Attachments : cover.jpg

Video
ID : 1
Format : HEVC
Format/Info : High Efficiency Video Coding
Format profile : Main [email protected]@Main
Codec ID : V_MPEGH/ISO/HEVC
Duration : 2 h 23 min
Bit rate : 14.7 Mb/s
Width : 1 920 pixels
Height : 1 080 pixels
Display aspect ratio : 16:9
Frame rate mode : Constant
Frame rate : 23.976 (24000/1001) FPS
Color space : YUV
Chroma subsampling : 4:2:0
Bit depth : 10 bits
Bits/(Pixel*Frame) : 0.297
Stream size : 14.7 GiB (92%)
Writing library : x265 2.9+15-81373aab81df:[Windows][MSVC 1916][64 bit] 10bit
Encoding settings : cpuid=1111039 / frame-threads=4 / numa-pools=16 / wpp / no-pmode / no-pme / no-psnr / no-ssim / log-level=2 / input-csp=1 / input-res=1920x1080 / interlace=0 / total-frames=205800 / level-idc=0 / high-tier=1 / uhd-bd=0 / ref=4 / no-allow-non-conformance / no-repeat-headers / annexb / no-aud / no-hrd / info / hash=0 / no-temporal-layers / open-gop / min-keyint=23 / keyint=250 / gop-lookahead=0 / bframes=8 / b-adapt=2 / b-pyramid / bframe-bias=0 / rc-lookahead=90 / lookahead-slices=4 / scenecut=40 / radl=0 / no-splice / no-intra-refresh / ctu=64 / min-cu-size=8 / rect / amp / max-tu-size=32 / tu-inter-depth=1 / tu-intra-depth=1 / limit-tu=0 / rdoq-level=2 / dynamic-rd=0.00 / no-ssim-rd / signhide / no-tskip / nr-intra=0 / nr-inter=0 / no-constrained-intra / no-strong-intra-smoothing / max-merge=3 / limit-refs=3 / limit-modes / me=3 / subme=3 / merange=57 / temporal-mvp / weightp / no-weightb / no-analyze-src-pics / deblock=-3:-3 / no-sao / no-sao-non-deblock / rd=4 / no-early-skip / no-rskip / no-fast-intra / no-tskip-fast / no-cu-lossless / b-intra / no-splitrd-skip / rdpenalty=0 / psy-rd=1.00 / psy-rdoq=5.00 / no-rd-refine / no-lossless / cbqpoffs=-3 / crqpoffs=-3 / rc=crf / crf=18.0 / qcomp=0.60 / qpstep=4 / stats-write=0 / stats-read=0 / ipratio=1.40 / pbratio=1.30 / aq-mode=3 / aq-strength=1.00 / cutree / zone-count=0 / no-strict-cbr / qg-size=32 / no-rc-grain / qpmax=69 / qpmin=0 / no-const-vbv / sar=0 / overscan=0 / videoformat=5 / range=0 / colorprim=2 / transfer=2 / colormatrix=2 / chromaloc=0 / display-window=0 / max-cll=0,0 / min-luma=0 / max-luma=1023 / log2-max-poc-lsb=8 / vui-timing-info / vui-hrd-info / slices=1 / no-opt-qp-pps / no-opt-ref-list-length-pps / no-multi-pass-opt-rps / scenecut-bias=0.05 / no-opt-cu-delta-qp / no-aq-motion / no-hdr / no-hdr-opt / no-dhdr10-opt / no-idr-recovery-sei / analysis-reuse-level=5 / scale-factor=0 / refine-intra=0 / refine-inter=0 / refine-mv=0 / no-limit-sao / ctu-info=0 / no-lowpass-dct / refine-mv-type=0 / copy-pic=1 / max-ausize-factor=1.0 / no-dynamic-refine / no-single-sei
Language : English
Default : Yes
Forced : No

Audio
ID : 2
Format : AAC
Format/Info : Advanced Audio Codec
Format profile : LC
Codec ID : A_AAC
Duration : 2 h 23 min
Bit rate : 1 315 kb/s
Channel(s) : 7 channels
Channel(s)_Original : 8 channels
Channel positions : Front: L C R, Side: L R, Back: L R, LFE
Sampling rate : 48.0 kHz
Frame rate : 46.875 FPS (1024 spf)
Compression mode : Lossy
Delay relative to video : 9 ms
Stream size : 1.31 GiB (8%)
Language : English
Default : Yes
Forced : No

Subtitle
ID : 3
Format : PGS
Muxing mode : zlib
Codec ID : S_HDMV/PGS
Codec ID/Info : Picture based subtitle format used on BDs/HD-DVDs
Duration : 2 h 22 min
Bit rate : 23.1 kb/s
Count of elements : 2940
Stream size : 23.5 MiB (0%)
Language : English
Default : Yes
Forced : No

Menu
00:00:00.000 : en:Chapter 01
00:11:17.301 : en:Chapter 02
00:20:01.408 : en:Chapter 03
00:30:09.724 : en:Chapter 04
00:39:21.567 : en:Chapter 05
00:48:57.559 : en:Chapter 06
00:59:03.373 : en:Chapter 07
01:08:57.925 : en:Chapter 08
01:17:35.400 : en:Chapter 09
01:28:36.019 : en:Chapter 10
01:40:48.083 : en:Chapter 11
01:50:55.815 : en:Chapter 12
02:00:53.579 : en:Chapter 13
02:10:13.180 : en:Chapter 14
02:12:49.920 : en:Chapter 15
02:23:02.323 : en:Chapter 16

Source Information
Release: Unknown Source/NO-GROUP


Note From UTR
We have no issue with individuals posting or re-uploading our torrents on a platform we aren't on. However, if this is something you'd like to do, please do so in a 'as-is' format. We ask that you do not create a new torrent, include all descriptions you see above including the UTR logo, tags, notes and screenshots. If you'd like to become a permanent poster on a website we don't post to, feel free to get in contact with a UniTeam member.

If possible please donate: BTC 1QA5fum5AyXvWzdVCkQzUNvw3Ef15fHRaR



Category:Movies > HEVC/x265
Lang:English  English
Total Size:17.26 GB
Info Hash:e0cfea8e39218301d71e3d6fee1b96aa0aa9590f
Added By:UTRHD
Date Added:29-12-2018 07:26:32

Files

File List: 
 File Size
Featurettes/All.Out.Action.mkv482 MB
Featurettes/Animated.Short.mkv52 MB
Featurettes/Hobbiton.mkv132 MB
Featurettes/Krypton.Decoded.mkv117 MB
Featurettes/Strong.Characters,.Legendary.Roles.mkv445 MB
Information/Custom.Screenshot.jpg132.02 kB
Information/Encoding, Color Grading, Opener and Trailer done by HDVinnie.txt61.00 B
Information/Original.Screenshot.jpg173.60 kB
Man.of.Steel.2013.1080p.BluRay.x265.10bit.AAC.7.1-Qman[UTR-HD].(89DB264F).mkv16.06 GB



Comments

There are currently no comments. Be the first one to write something !