the 100 ethd Sonic the Hedgehog 2020 rick and morty s04e09 evo ettv 2160p betaal Scoob! 2020 batwoman the flash The Hunt 2020 insecure The Gentlemen 2020 Birds of Prey (and the Fantabulous Emancipation of One Harley Quinn) 2020 supergirl Extraction 2020 The Blackout hindi hightown Outlander  0 run Snowpiercer S01E02 The Lovebirds 2020 seal team  AEW rick and morty s04e08 legends of tomorrow westworld star wars the rise of skywalker 2019 BILLIONS Hightown S01E02 rq.mp4 etmovies EtHD ddr Stargirl S01E01 The Invisible Man 2020 penny dreadful defending jacob Survive the Night 2020 Good Witch S06E04 Rick and Morty stargirl wwe stargirl s01e02 Penny Dreadful City of Angels S01E05 what we do in the shadows Killing Eve S03E07 Defending Jacob S01E07 Capone 2020 ufc Modern Love s01e07 Live PD s04e65 Billions S05E04 Killing Eve yts Locke  Bloodshot 2020 Harley Quinn Xxx Bad Boys for Life 2020 etrg snowpiercer Blindspot Inheritance 2020 90 Day Fiance Before The 90 Days S04E14 The Wrong Missy 2020 
Warning! Use a VPN When Downloading Torrents!
Your IP Address is 3.235.172.213. Location United States
Your Internet Provider can see when you download torrents! Hide your IP Address with a VPN
ETTV warns: You should use VPN to hide your torrenting. HIDE ME NOW
ETTV Recommended TV Shows
Snowpiercer.S01E02.HDTV.x264-KILLERS[ettv] torrent
Rick.and.Morty.S04E09.WEBRip.x264-BTX[ettv] torrent
I.Know.This.Much.Is.True.S01E03.WEB.H264-BTX[ettv] torrent
Stargirl.S01E02.720p.WEB.x265-[ettv] torrent

ETTV Recommended SD
Measure.For.Measure.2020.HDRip.XviD.AC3-EVO torrent
Return.Of.The.Tooth.Fairy.2020.HDRip.XviD.AC3-EVO torrent
Coven.Of.Evil.2020.HDRip.XviD.AC3-EVO torrent
Celebrity.Crush.2019.HDRip.XviD.AC3-EVO torrent

ETTV Recommended HD
Measure.For.Measure.2020.1080p.WEB-DL.H264.AC3-EVO[EtHD] torrent
Return.Of.The.Tooth.Fairy.2020.1080p.WEB-DL.H264.AC3-EVO[EtHD] torrent
Celebrity.Crush.2019.1080p.WEB-DL.H264.AC3-EVO[EtHD] torrent
Coven.Of.Evil.2020.1080p.WEB-DL.H264.AC3-EVO[EtHD] torrent

ETTV Recommended UHD
Lock.Up.1989.BDRip.2160p.UHD.HDR.Eng.DTS-HD.MA.ETRG torrent
2001.A.Space.Odyssey.1968.BDRip.2160p.UHD.HDR.Eng.DTS-HD.MA.ETRG torrent
War.of.the.Worlds.2005.4K.HDR.2160p.BDRip Ita Eng x265-NAHOM torrent
The Blues Brothers 1980.MULTi.UHD.BluRay.2160p.HDR.HEVC.DTS-X.7.1-DDR.mkv torrent

ETTV Recommended Cam
The Hunt 2020 HDCAM x264 AC3-ETRG torrent
The Burnt Orange Heresy 2020 720p HDCAM-C1NEM4 torrent

ETTV Recommended Foreign
The Bank Job 2008 1080p 10bit BluRay x265 HEVC [Hindi 5.1 - English 5.1] ESub - MoviePirate - Telly.mkv torrent
Muori papà... muori! (2019) [BluRay Rip 1080p ITA-RUS DTS-AC3 SUBS] [M@HD] torrent
All for Nikki  (2020) HDRip 720p [Hindi-Dub] Dual-Audio x264 - 1XCinema torrent
Betaal.S01.2020.UHD.2160p.HDR.WEB-Rip.Atmos.5.1.HEVC-DDR torrent

Sponsored


Download Torrent "Grave Encounters 2 (2012) (1080p BluRay 10Bit x265 HEVC DTS 5.1 Kira) [UTR-..."

IMDB Details
Description:

N/A

Genre:

N/A

Download Torrent (Magnet)
Download Torrent (File)
Seeds: 18
Leechers: 12
Completed: 107 
Last Checked: 07-10-2018 14:23:29


Details
Title:Grave Encounters 2 (2012) (1080p BluRay 10Bit x265 HEVC DTS 5.1 Kira) [UTR-...
Description:




Encode :



Source :



Media Information
General
Format : Matroska
Format version : Version 4 / Version 2
File size : 7.77 GiB
Duration : 1 h 38 min
Overall bit rate : 11.3 Mb/s
Movie name : Grave Encounters 2 [2012]
Encoded date : UTC 2018-10-06 12:04:53
Writing application : mkvmerge v27.0.0 ('Metropolis') 64-bit
Writing library : libebml v1.3.6 + libmatroska v1.4.9

Video
ID : 1
Format : HEVC
Format/Info : High Efficiency Video Coding
Format profile : Main [email protected]@Main
Codec ID : V_MPEGH/ISO/HEVC
Duration : 1 h 38 min
Bit rate : 9 745 kb/s
Width : 1 920 pixels
Height : 1 080 pixels
Display aspect ratio : 16:9
Frame rate mode : Constant
Frame rate : 23.976 (24000/1001) FPS
Color space : YUV
Chroma subsampling : 4:2:0
Bit depth : 10 bits
Bits/(Pixel*Frame) : 0.196
Stream size : 6.72 GiB (87%)
Title : Grave Encounters 2 [2012]
Writing library : x265 2.8+66-88ee12651e30:[Windows][MSVC 1915][64 bit] 10bit
Encoding settings : cpuid=1111039 / frame-threads=2 / numa-pools=4 / wpp / no-pmode / no-pme / no-psnr / no-ssim / log-level=2 / input-csp=1 / input-res=1920x1080 / interlace=0 / total-frames=142101 / level-idc=0 / high-tier=1 / uhd-bd=0 / ref=4 / no-allow-non-conformance / no-repeat-headers / annexb / no-aud / no-hrd / info / hash=0 / no-temporal-layers / open-gop / min-keyint=23 / keyint=250 / gop-lookahead=0 / bframes=8 / b-adapt=2 / b-pyramid / bframe-bias=0 / rc-lookahead=90 / lookahead-slices=4 / scenecut=40 / radl=0 / no-intra-refresh / ctu=64 / min-cu-size=8 / no-rect / no-amp / max-tu-size=32 / tu-inter-depth=2 / tu-intra-depth=2 / limit-tu=4 / rdoq-level=2 / dynamic-rd=0.00 / no-ssim-rd / signhide / no-tskip / nr-intra=0 / nr-inter=0 / no-constrained-intra / strong-intra-smoothing / max-merge=3 / limit-refs=2 / limit-modes / me=3 / subme=5 / merange=57 / temporal-mvp / weightp / weightb / no-analyze-src-pics / deblock=1:1 / sao / no-sao-non-deblock / rd=6 / no-early-skip / rskip / no-fast-intra / no-tskip-fast / no-cu-lossless / b-intra / no-splitrd-skip / rdpenalty=0 / psy-rd=1.00 / psy-rdoq=1.00 / no-rd-refine / no-lossless / cbqpoffs=0 / crqpoffs=0 / rc=abr / bitrate=9752 / qcomp=0.50 / qpstep=4 / stats-write=0 / stats-read=2 / cplxblur=20.0 / qblur=0.5 / ipratio=1.40 / pbratio=1.30 / aq-mode=3 / aq-strength=0.80 / cutree / zone-count=0 / no-strict-cbr / qg-size=32 / no-rc-grain / qpmax=69 / qpmin=0 / no-const-vbv / sar=0 / overscan=0 / videoformat=5 / range=0 / colorprim=2 / transfer=2 / colormatrix=2 / chromaloc=0 / display-window=0 / max-cll=0,0 / min-luma=0 / max-luma=1023 / log2-max-poc-lsb=8 / vui-timing-info / vui-hrd-info / slices=1 / no-opt-qp-pps / no-opt-ref-list-length-pps / no-multi-pass-opt-rps / scenecut-bias=0.05 / no-opt-cu-delta-qp / no-aq-motion / no-hdr / no-hdr-opt / no-dhdr10-opt / no-idr-recovery-sei / analysis-reuse-level=5 / scale-factor=0 / refine-intra=0 / refine-inter=0 / refine-mv=0 / no-limit-sao / ctu-info=0 / no-lowpass-dct / refine-mv-type=0 / copy-pic=1 / max-ausize-factor=1.0 / no-dynamic-refine / no-single-sei
Language : English
Default : Yes
Forced : No

Audio
ID : 2
Format : DTS
Format/Info : Digital Theater Systems
Mode : 16
Format settings, Endianness : Big
Codec ID : A_DTS
Duration : 1 h 38 min
Bit rate mode : Constant
Bit rate : 1 509 kb/s
Channel(s) : 6 channels
Channel positions : Front: L C R, Side: L R, LFE
Sampling rate : 48.0 kHz
Frame rate : 93.750 FPS (512 spf)
Bit depth : 16 bits
Compression mode : Lossy
Stream size : 1.04 GiB (13%)
Title : English Org BD DTS DD_5.1 @ 1509Kbps
Language : English
Default : Yes
Forced : No

Subtitle
ID : 3
Format : UTF-8
Codec ID : S_TEXT/UTF8
Codec ID/Info : UTF-8 Plain Text
Duration : 1 h 38 min
Bit rate : 80 b/s
Count of elements : 1739
Stream size : 57.7 KiB (0%)
Title : | English SRT | UTRSubs |
Language : English
Default : Yes
Forced : No

Menu
00:00:00.000 : :Chapter 01
00:11:07.333 : :Chapter 02
00:22:58.585 : :Chapter 03
00:33:15.118 : :Chapter 04
00:44:38.008 : :Chapter 05
00:54:47.409 : :Chapter 06
01:09:05.724 : :Chapter 07
01:20:58.979 : :Chapter 08
01:34:02.637 : :Chapter 09

Source Information
Release: Grave.Encounters.2.2012.Blu-Ray.Remux.(1080p).mkv (17.06 GBs)

General
Unique ID : 207062559493689267668615841789307473913 (0x9BC6CC61E9C39FD886AA90B704534FF9)
Complete name : D:\Grave.Encounters.2.2012.Blu-Ray.Remux.(1080p).mkv
Format : Matroska
Format version : Version 2
File size : 17.1 GiB
Duration : 1 h 38 min
Overall bit rate mode : Variable
Overall bit rate : 24.7 Mb/s
Encoded date : UTC 2013-10-27 18:03:19
Writing application : mkvmerge v5.8.0 ('No Sleep / Pillow') built on Sep 2 2012 15:37:04
Writing library : libebml v1.2.3 + libmatroska v1.3.0
Attachments : poster.jpg

Video
ID : 1
Format : AVC
Format/Info : Advanced Video Codec
Format profile : [email protected]
Format settings : CABAC / 3 Ref Frames
Format settings, CABAC : Yes
Format settings, ReFrames : 3 frames
Format settings, GOP : M=3, N=12
Muxing mode : Container [email protected]
Codec ID : V_MPEG4/ISO/AVC
Duration : 1 h 38 min
Bit rate mode : Variable
Maximum bit rate : 27.7 Mb/s
Width : 1 920 pixels
Height : 1 080 pixels
Display aspect ratio : 16:9
Frame rate mode : Constant
Frame rate : 23.976 (24000/1001) FPS
Standard : NTSC
Color space : YUV
Chroma subsampling : 4:2:0
Bit depth : 8 bits
Scan type : Progressive
Default : Yes
Forced : No
Color range : Limited
Color primaries : BT.709
Transfer characteristics : BT.709
Matrix coefficients : BT.709

Audio #1
ID : 2
Format : AC-3
Format/Info : Audio Coding 3
Codec ID : A_AC3
Duration : 1 h 38 min
Bit rate mode : Constant
Bit rate : 448 kb/s
Channel(s) : 6 channels
Channel positions : Front: L C R, Side: L R, LFE
Sampling rate : 48.0 kHz
Frame rate : 31.250 FPS (1536 SPF)
Bit depth : 16 bits
Compression mode : Lossy
Stream size : 317 MiB (2%)
Title : MVO, R5
Language : Russian
Service kind : Complete Main
Default : Yes
Forced : No

Audio #2
ID : 3
Format : DTS
Format/Info : Digital Theater Systems
Format profile : MA / Core
Codec ID : A_DTS
Duration : 1 h 38 min
Bit rate mode : Variable / Constant
Bit rate : Unknown / 1 509 kb/s
Channel(s) : 6 channels
Channel positions : Front: L C R, Side: L R, LFE
Sampling rate : 48.0 kHz
Frame rate : 93.750 FPS (512 SPF)
Bit depth : 16 bits
Compression mode : Lossless / Lossy
Language : English
Default : No
Forced : No

Text #1
ID : 4
Format : UTF-8
Codec ID : S_TEXT/UTF8
Codec ID/Info : UTF-8 Plain Text
Title : ??? 107miller
Language : Russian
Default : No
Forced : No

Text #2
ID : 5
Format : UTF-8
Codec ID : S_TEXT/UTF8
Codec ID/Info : UTF-8 Plain Text
Language : English
Default : No
Forced : No

Menu
00:00:00.000 : :Chapter 01
00:11:07.333 : :Chapter 02
00:22:58.585 : :Chapter 03
00:33:15.118 : :Chapter 04
00:44:38.008 : :Chapter 05
00:54:47.409 : :Chapter 06
01:09:05.724 : :Chapter 07
01:20:58.979 : :Chapter 08
01:34:02.637 : :Chapter 09



Note From UTR
We have no issue with individuals posting or re-uploading our torrents on a platform we aren't on. However, if this is something you'd like to do, please do so in a 'as-is' format. We ask that you do not create a new torrent, include all descriptions you see above including the UTR logo, tags, notes and screenshots. If you'd like to become a permanent poster on a website we don't post to, feel free to get in contact with a UniTeam member.

If possible please donate: BTC 1QA5fum5AyXvWzdVCkQzUNvw3Ef15fHRaR


Category:TV > HEVC/x265
Lang:English  English
Total Size:7.77 GB
Info Hash:120f0b51dbc5af12e7e9a273a6acf26c505a1e86
Added By:UTRHD
Date Added:07-10-2018 14:23:00

Files

File List: 
 File Size
Grave Encounters 2 (2012) (1080p BluRay 10Bit x265 HEVC DTS 5.1 Kira) [UTR-HD].mkv7.77 GB



Comments

There are currently no comments. Be the first one to write something !