bad boys Greys Anatomy S16E19 The Call of the Wild 2020 yts The Sinner S03E08 The Walking Dead S10E14 Fantasy Island 2020 underwater jumanji the next level 2019 Frozen II 2019 blacklist the way back 2020 Brooklyn Nine-Nine S07E09 Joker 2019 bloodshot xxx RuPauls Drag Race S12E05 etrg Ozark s03e05 onward 2020 greys anatomy Star Trek Picard Sonic the Hedgehog 2020 evo Contagion 2011 ozark the blacklist  WALKING DEAD a quiet place part ii 2020 Trolls World Tour 2020 ethd Ozark s03e04 Star Trek Picard S01E09 MacGyver S04E07 bad boys for life The Invisible Man 2020 The Gentlemen 2019 The Hunt 2020 gold rush 1917 2019 ettv ddr Deputy s01e13 Tiger King Murder, Mayhem and Madness S01E01 The Platform 2019 Spenser Confidential 2020 Westworld s03e02 The Banker 2020 Star Trek Picard S01E10 the walking dead Hawaii Five-0 S10E21 The Blacklist S07E12 bad boys for life 2020 Westworld Underwater 2020 hindi Spies in Disguise 2019 the gentlemen 2020 Dolittle 2020 etmovies Birds of Prey (and the Fantabulous Emancipation of One Harley Quinn) 2020 Ozark S03E01 bloodshot 2020 knives out 2019 the gentlemen Ozark s03e02 the call of the wild Picard rq.mp4 brooklyn nine nine Ozark s03e03 Star Wars The Rise of Skywalker 2019 
ETTV Recommended TV Shows
The.Walking.Dead.S10E14.WEB.H264-XLF[ettv] torrent
Hawaii.Five-0.2010.S10E21.HDTV.x264-SVA[ettv] torrent
Strike.Back.S08E07.WEB.H264-XLF[ettv] torrent
WWE Smackdown 2020 03 27 HDTV x264-Star [TJET] torrent

ETTV Recommended SD
Homeward.2020.BRRip.XviD.AC3-EVO torrent
What.Love.Looks.Like.2020.HDRip.XviD.AC3-EVO torrent
Red Shoes and the Seven Dwarfs.2020.HDRip.XviD-EVO torrent
In.Vino.2019.HDRip.XviD.AC3-EVO torrent

ETTV Recommended HD
What.Love.Looks.Like.2020.1080p.AMZN.WEB-DL.DDP2.0.H264-CMRG[EtHD] torrent
Haunt.2019.1080p.BluRay.x264-GETiT[EtHD] torrent
Red Shoes and the Seven Dwarfs.2020.1080p.HDRip.X264.AC3-EVO[EtHD] torrent
In.Vino.2019.1080p.WEB-DL.H264.AC3-EVO[EtHD] torrent

ETTV Recommended UHD
Star.Wars.Episode.IX.The.Rise.of.Skywalker.2019.4K.HDR.2160p.BDRip Ita Eng x265-NAHOM torrent
Transformers.Age.of.Extinction.2014.BDRip.2160p.UHD.HDR.TrueHD.ETRG torrent
Transformers.The.Last.Knight.2017.BDRip.2160p.UHD.HDR.TrueHD.ETRG torrent
Lady.and.the.Tramp 2019 4K.HDR.2160p.WEBDL Ita Eng x265-NAHOM torrent

ETTV Recommended Cam
My Spy 2020 HDCAM x264 AC3-ETRG torrent
The Hunt 2020 HDCAM x264 AC3-ETRG torrent
The Burnt Orange Heresy 2020 720p HDCAM-C1NEM4 torrent
Fantasy Island 2020 UNRATED HDTS XViD AC3-ETRG torrent

ETTV Recommended Foreign
Bonus.2020.1080p.AMZN.WEB-DL.DD+5.1.x264-Telly torrent
Underwater (2020) HDRip 720p [Hindi-Dub] Dual-Audio x264 - 1XCinema torrent
Bloodshot (2020) ITA-ENG Ac3 5.1 WEBRip 1080p H264 [ArMor] torrent
The Black Hole (2006) 720p WEBRip x264 Eng Subs [Dual Audio] [Hindi DD 2.0 - English 2.0] Exclusive By -=!Dr.STAR!=- torrent


Download Torrent "Solo A Star Wars Story (2018) (1080p BluRay 10bit x265 HEVC DTS-HD MA 7.1 Q..."

IMDB Details
Description:

N/A

Genre:

N/A

Download Torrent (Magnet)
Seeds: 186
Leechers: 44
Completed: 8,027 
Last Checked: 25-09-2018 16:39:31


Details
Title:Solo A Star Wars Story (2018) (1080p BluRay 10bit x265 HEVC DTS-HD MA 7.1 Q...
Description:


Encode




Source




Media Information
General
Format : Matroska
Format version : Version 4 / Version 2
File size : 10.0 GiB
Duration : 2 h 14 min
Overall bit rate : 10.7 Mb/s
Encoded date : UTC 2018-09-15 22:46:23
Writing application : mkvmerge v26.0.0 ('In The Game') 64-bit
Writing library : libebml v1.3.6 + libmatroska v1.4.9

Video
ID : 1
Format : HEVC
Format/Info : High Efficiency Video Coding
Format profile : Main [email protected]@Main
Codec ID : V_MPEGH/ISO/HEVC
Duration : 2 h 14 min
Bit rate : 5 235 kb/s
Width : 1 920 pixels
Height : 1 080 pixels
Display aspect ratio : 16:9
Frame rate mode : Constant
Frame rate : 23.976 (24000/1001) FPS
Color space : YUV
Chroma subsampling : 4:2:0
Bit depth : 10 bits
Bits/(Pixel*Frame) : 0.105
Stream size : 4.93 GiB (49%)
Writing library : x265 2.8+68-fa57fa584898:[Windows][MSVC 1915][64 bit] 10bit
Encoding settings : cpuid=1111039 / frame-threads=4 / numa-pools=16 / wpp / no-pmode / no-pme / no-psnr / no-ssim / log-level=2 / input-csp=1 / input-res=1920x1080 / interlace=0 / total-frames=193887 / level-idc=0 / high-tier=1 / uhd-bd=0 / ref=4 / no-allow-non-conformance / no-repeat-headers / annexb / no-aud / no-hrd / info / hash=0 / no-temporal-layers / open-gop / min-keyint=23 / keyint=250 / gop-lookahead=0 / bframes=8 / b-adapt=2 / b-pyramid / bframe-bias=0 / rc-lookahead=100 / lookahead-slices=4 / scenecut=40 / radl=0 / no-intra-refresh / ctu=64 / min-cu-size=8 / rect / amp / max-tu-size=32 / tu-inter-depth=2 / tu-intra-depth=2 / limit-tu=4 / rdoq-level=2 / dynamic-rd=0.00 / no-ssim-rd / signhide / no-tskip / nr-intra=0 / nr-inter=0 / no-constrained-intra / no-strong-intra-smoothing / max-merge=3 / limit-refs=2 / limit-modes / me=3 / subme=3 / merange=57 / temporal-mvp / weightp / weightb / no-analyze-src-pics / deblock=-1:-1 / no-sao / no-sao-non-deblock / rd=6 / no-early-skip / no-rskip / no-fast-intra / no-tskip-fast / no-cu-lossless / b-intra / no-splitrd-skip / rdpenalty=0 / psy-rd=1.00 / psy-rdoq=5.00 / no-rd-refine / no-lossless / cbqpoffs=-3 / crqpoffs=-3 / rc=crf / crf=16.5 / qcomp=0.60 / qpstep=4 / stats-write=0 / stats-read=0 / ipratio=1.40 / pbratio=1.30 / aq-mode=2 / aq-strength=1.00 / cutree / zone-count=0 / no-strict-cbr / qg-size=32 / no-rc-grain / qpmax=69 / qpmin=0 / no-const-vbv / sar=0 / overscan=0 / videoformat=5 / range=0 / colorprim=2 / transfer=2 / colormatrix=2 / chromaloc=0 / display-window=0 / max-cll=0,0 / min-luma=0 / max-luma=1023 / log2-max-poc-lsb=8 / vui-timing-info / vui-hrd-info / slices=1 / no-opt-qp-pps / no-opt-ref-list-length-pps / no-multi-pass-opt-rps / scenecut-bias=0.05 / no-opt-cu-delta-qp / no-aq-motion / no-hdr / no-hdr-opt / no-dhdr10-opt / no-idr-recovery-sei / analysis-reuse-level=5 / scale-factor=0 / refine-intra=0 / refine-inter=0 / refine-mv=0 / no-limit-sao / ctu-info=0 / no-lowpass-dct / refine-mv-type=0 / copy-pic=1 / max-ausize-factor=1.0 / no-dynamic-refine / no-single-sei
Language : English
Default : Yes
Forced : No

Audio
ID : 2
Format : DTS
Format/Info : Digital Theater Systems
Format profile : MA / Core
Mode : 16
Format settings, Endianness : Big
Codec ID : A_DTS
Duration : 2 h 14 min
Bit rate mode : Variable / Constant
Bit rate : 5 407 kb/s / 1 509 kb/s
Channel(s) : 8 channels / 6 channels
Channel positions : Front: L C R, Side: L R, Back: L R, LFE / Front: L C R, Side: L R, LFE
Sampling rate : 48.0 kHz
Frame rate : 93.750 FPS (512 spf)
Bit depth : 24 bits
Compression mode : Lossless / Lossy
Stream size : 5.09 GiB (51%)
Language : English
Default : Yes
Forced : No

Subtitle #1
ID : 3
Format : PGS
Muxing mode : zlib
Codec ID : S_HDMV/PGS
Codec ID/Info : Picture based subtitle format used on BDs/HD-DVDs
Duration : 1 h 20 min
Bit rate : 400 b/s
Count of elements : 36
Stream size : 236 KiB (0%)
Title : Forced
Language : English
Default : Yes
Forced : Yes

Subtitle #2
ID : 4
Format : PGS
Muxing mode : zlib
Codec ID : S_HDMV/PGS
Codec ID/Info : Picture based subtitle format used on BDs/HD-DVDs
Duration : 2 h 5 min
Bit rate : 42.3 kb/s
Count of elements : 4496
Stream size : 37.9 MiB (0%)
Title : SDH
Language : English
Default : No
Forced : No

Menu
00:00:00.000 : en:Opening Credits
00:00:53.511 : en:Streets of Corellia
00:02:10.213 : en:Qi'ra
00:03:53.149 : en:Den of The White Worms
00:06:00.485 : en:Corellian Speeder Chase
00:09:27.567 : en:Coronet Spaceport
00:13:16.045 : en:Recruitment
00:14:14.019 : en:Mimban Battlefield
00:16:12.262 : en:None-of-Your-Business Company
00:19:45.100 : en:The Beast
00:22:43.820 : en:Mimban Escape
00:24:37.267 : en:Vandor
00:27:00.035 : en:Campfire Stories
00:30:02.926 : en:Conveyex Heist
00:32:54.681 : en:Marauder Attack
00:39:09.764 : en:"You're in This Life For Good"
00:41:59.225 : en:The Yacht
00:43:20.180 : en:Dryden Vos
00:44:32.127 : en:Reunion
00:48:03.755 : en:Deal with Crimson Dawn
00:51:58.323 : en:The Lodge
00:53:17.527 : en:Full Sabacc
00:57:23.523 : en:Lando and L3
01:00:16.779 : en:Millennium Falcon
01:02:40.882 : en:"Buckle Up, Baby"
01:04:51.262 : en:"People Are Predictable"
01:05:29.508 : en:Han and Qi'ra
01:07:12.028 : en:"Trust No One"
01:08:05.915 : en:Not Compatible
01:10:00.112 : en:Arrival on Kessel
01:12:44.193 : en:Into the Mines
01:14:40.851 : en:Revolt
01:18:30.872 : en:Kessel Shootout
01:23:15.740 : en:Into the Maelstrom
01:26:32.645 : en:Kessel Run
01:30:33.136 : en:Escaping the Maw
01:35:19.672 : en:Savareen
01:37:04.860 : en:The Good Guy
01:38:52.801 : en:Marauders Return
01:41:18.530 : en:Enfys Nest
01:43:02.676 : en:One Last Score
01:45:27.821 : en:The Delivery
01:46:32.177 : en:Explosive Stuff
01:49:45.996 : en:Double-Crossings
01:53:33.890 : en:Duel with Dryden
01:57:13.901 : en:Secret Leader
01:58:55.128 : en:Showdown
02:01:34.829 : en:Rebellion's Dawn
02:03:20.893 : en:Sabacc Rematch
02:06:09.353 : en:End Credits


Source Information
Release: REMUX


Note From UTR
We have no issue with individuals posting or re-uploading our torrents on a platform we aren't on. However, if this is something you'd like to do, please do so in a 'as-is' format. We ask that you do not create a new torrent, include all descriptions you see above including the UTR logo, tags, notes and screenshots. If you'd like to become a permanent poster on a website we don't post to, feel free to get in contact with a UniTeam member.

If possible please donate: BTC 1QA5fum5AyXvWzdVCkQzUNvw3Ef15fHRaR



Category:Movies > HEVC/x265
Lang:English  English
Total Size:10.03 GB
Info Hash:161b7f62176f99f893851cb7d60a4ef9d836ba45
Added By:UTRHD
Date Added:25-09-2018 16:39:27

Files

File List: 
 File Size
Solo.A.Star.Wars.Story.(2018).1080p.BluRay.10-bit.x265.DTS.7.1 Qman[UTR].(63B6BFBA).mkv10.03 GB



Comments

There are currently no comments. Be the first one to write something !